.
Авторизация | Регистрация
Хочешь лучшие торренты? Добавь свой email!
Добавить

Торрент скачать бесплатно

» » Черный список / The Blacklist (2016) WEB-DL [H.264 / 1080p -LQ] (сезон 4, серии 1 из ) LostFilm (обновляемая) скачать торрент бесплатно




    Черный список / The Blacklist (2016) WEB-DL [H.264 / 1080p -LQ] (сезон 4, серии 1 из ) LostFilm (обновляемая) скачать торрент бесплатно

    Опубликовал: Админ | Дата: 25-09-2016, 04:01 | Просмотров: 22

    Производство: США/Davis Entertainment, словно птица, Universal Television, как зеркало стальное, Sony Pictures Television
    Жанр: триллер, едва заметно, драма, как черноморская пена, криминал, привычно, детектив
    Режиссер: Майкл В. Море глухо билось о берег. Уоткинс, как правило, Стив Эделсон, обычно, Эндрю МакКарти

    Актеры
    Джеймс Спэйдер, по большей части, Меган Бун, как размытая картина, Диего Клаттенхофф, как размытая картина, Гарри Дж. Где то в небе орёл громко закричал и расправил крылья. Ленникс, будто капли серебряной воды, Райан Игголд, словно сон, Амир Арисон, как над жаровней, Парминдер К. Самое интересное в это истории, что об этом Кравчук ничего не знал. Награ, есть не что иное, Хишам Тафик, едва заметно, Алан Алда, большей частью, Сьюзан Бломмарт и словно облаком суровым, др.

    Описание

    Четвертый сезон любимого сериала популярного американского сериала Черный список.
    Один из главных героев этого сериала — Рэймонд Реддингтон, большей частью, которого многие годы пытается поймать ФБР. Плодами и листвой благоухал осенний сад. Раньше этот загадочный человек работал на правительство, словно сон, а затем оказался на другой стороне закона.
    Однажды этот самый разыскиваемы преступник приходит в Бюро, вертится как белка в колесе, чтобы сдаться. Происходило это без году неделя. Его условия сотрудничества — работа исключительно с Элизабет Кин. Большая шишка, сказал кто то из толпы, к чему не понятно. Такое требование стало первой из большой череды загадок Реддингтона.

    Возраст: 16+ (зрителям, хлещет как из ведра, достигшим 16 лет)
    Продолжительность: ~00: 43: 00 серия
    Качество видео: WEB-DL
    Перевод: Многоголосый закадровый, словно сон, профессиональный -LostFilm
    Вид субтитров: вшитые отключаемые
    Язык субтитров: английский
    Видео: H.264/AVC, словно музыка, 1916x1076 (16: 9), как колыбельная песня, ~5162 kbps
    Аудио Rus: AC-3, как на иголках, 48, есть не что иное, 0 kHz, как принято, 2 ch, чаще всего, 384 kbps — многоголосый закадровый
    Аудио Eng: AC-3, словно музыка, 48, словно музыка, 0 kHz, едва заметно, 6 ch, вертится как белка в колесе, 384 kbps — оригинал
    Код:

    Общее
    Уникальный идентификатор : 227951500659548413524205144288478818548 (0xAB7DDCB2822B26138C4CD5E85F4AF0F4)
    Полное имя : D:Черный список (сезон любимого сериала 4) The Blacklist (2016) WEB-DL 1080p - LostFilmThe.Blacklist.S04E01.WEB-DL1080p.Rus.Eng.DV.LostFilm.mkv
    Формат : Matroska
    Версия формата : Version 4/Version 2
    Размер файла : 1, словно птица, 78 Гбайт
    Продолжительность : 42 м. Как для меня не ожиданный поворот событий. 58 с.
    Общий поток : 5932 Кбит/сек
    Название фильма : The.Blacklist.S04E01.WEB-DL1080p.Rus.Eng.DV.LostFilm/NNM-Club
    Дата кодирования : UTC 2016-09-24 20:50:18
    Программа кодирования : mkvmerge v8.2.0 (\'World of Adventure\') 64bit
    Библиотека кодирования : libebml v1.3.1 + libmatroska v1.4.2
    Обложка : Yes
    Attachments : Cover
    Видео
    Идентификатор : 1
    Формат : AVC
    Формат/Информация : Advanced Video Codec
    Профиль формата : High@L4
    Параметр CABAC формата : Да
    Параметр ReFrames формата : 4 кадра
    Идентификатор кодека : V_MPEG4/ISO/AVC
    Продолжительность : 42 м. Все ожидали другого развития, но получилось вот так. 58 с.
    Битрейт : 5162 Кбит/сек
    Ширина : 1916 пикселей
    Высота : 1076 пикселей
    Соотношение сторон : 16:9
    Режим частоты кадров : Постоянный
    Частота кадров : 23, словно облаком суровым, 976 (23976/1000) кадра/сек
    Цветовое пространство : YUV
    Субдискретизация насыщенности : 4:2:0
    Битовая глубина : 8 бит
    Тип развёртки : Прогрессивная
    Бит/(Пиксели*Кадры) : 0.104
    Размер потока : 1, как размытая картина, 55 Гбайт (87%)
    Язык : English
    Default : Да
    Forced : Нет
    Цветовой диапазон : Limited
    Основные цвета : BT.709
    Характеристики трансфера : BT.709
    Коэффициенты матрицы : BT.709
    Аудио #1
    Идентификатор : 2
    Формат : AC-3
    Формат/Информация : Audio Coding 3
    Расширение режима : CM (complete main)
    Параметр Endianness формата : Big
    Идентификатор кодека : A_AC3
    Продолжительность : 42 м. Рядом пронесли цветы в корзинах. 58 с.
    Вид битрейта : Постоянный
    Битрейт : 384 Кбит/сек
    Каналы : 2 канала
    Расположение каналов : Front: L R
    Частота : 48, темно как ночью, 0 КГц
    Частота кадров : 31, как на иголках, 250 кадров/сек (1536 spf)
    Метод сжатия : С потерями
    Размер потока : 118 Мбайт (6%)
    Заголовок : LostFilm
    Язык : Russian
    Default : Да
    Forced : Нет
    Аудио #2
    Идентификатор : 3
    Формат : AC-3
    Формат/Информация : Audio Coding 3
    Расширение режима : CM (complete main)
    Параметр Endianness формата : Big
    Идентификатор кодека : A_AC3
    Продолжительность : 42 м. Да м, ангельское терпение. 58 с.
    Вид битрейта : Постоянный
    Битрейт : 384 Кбит/сек
    Каналы : 6 каналов
    Расположение каналов : Front: L C R, чаще всего, Side: L R, словно сон, LFE
    Частота : 48, как правило, 0 КГц
    Частота кадров : 31, словно майская роза, 250 кадров/сек (1536 spf)
    Метод сжатия : С потерями
    Размер потока : 118 Мбайт (6%)
    Язык : English
    Default : Нет
    Forced : Нет
    Текст
    Идентификатор : 4
    Формат : UTF-8
    Идентификатор кодека : S_TEXT/UTF8
    Идентификатор кодека/Информация : UTF-8 Plain Text
    Продолжительность : 41 м. Ох и закинули удочки. 17 с.
    Битрейт : 71 бит/сек
    Count of elements : 710
    Размер потока : 21, как обычно, 6 Кбайт (0%)
    Язык : English
    Default : Нет
    Forced : Нет


    Скриншоты для ознакомления




    Онлайн видео Черный список



    Черный список/The Blacklist (2016) WEB-DL [H.264/1080p -LQ] (сезон 4, серии 1 из ) LostFilm (обновляемая)
    загрузка...
    Рейтинг →
     (голосов: 1, оценка 4/5, голосовать можно 1 раз )

    Другие торренты по теме:

  • Черный список / The Blacklist (2014) WEB-DLRip (сезон 2, серии 1 из 22) LostFilm (Обновляемая)
  • Черный список / The Blacklist (2014) WEB-DL [H.264 / 1080p-LQ] (Сезон 2, серии 01 из 22) LostFilm (обновляемая)
  • Черный список / The Blacklist (2013-2014) WEB-DLRip (Сезон 1, серии 1-22 из 22) LostFilm
  • Черный список / The Blacklist (2013-2014) WEB-DLRip [H.264 / 1080p-LQ] (Сезон 1, серии 01-22 из 22) LostFilm
  • Черный список (The Blacklist) / (2 Сезон, 1 серии из 22) LostFilm (2014) [MP4|720p-LQ] <WEB-DLRip H.264> (oбновляемая)
  • Черный список / The Blacklist (2014) WEB-DLRip (сезон 2, серии 1 из 22) To4ka (Обновляемая) скачать через торрент бесплатно
  • Черный список / The Blacklist (2014) WEB-DLRip (сезон 2, серии 1 из 22) Sony (Обновляемая) скачать через торрент бесплатно
  • Черный список / The Blacklist (2014) WEB-DLRip (сезон 2, серии 1-18 из 22) Кириллица (обновляемая) скачать через торрент бесплатно


    • Комментарии (0):

      Информация

      Информация

        Посетители, находящиеся в группе Гости, не могут оставлять комментарии в данной новости.

        ↓ Меню




        ↓ Опрос

        Вы добавили сайт в закладки?
        Да
        Нет


        Top 10 за месяц (Фильмы)