.
Авторизация | Регистрация
Хочешь лучшие торренты? Добавь свой email!
Добавить

Торрент скачать бесплатно

» » Люцифер / Lucifer (2016) HDTVRip [H.264 / 720p-LQ] (сезон 2, серии 1 из 13) OMSKBIRD (обновляемая) скачать торрент бесплатно




    Люцифер / Lucifer (2016) HDTVRip [H.264 / 720p-LQ] (сезон 2, серии 1 из 13) OMSKBIRD (обновляемая) скачать торрент бесплатно

    Опубликовал: Админ | Дата: 23-09-2016, 16:12 | Просмотров: 4

    Производство: США/Aggressive Mediocrity, будто капли серебряной воды, DC Entertainment, едва заметно, Jerry Bruckheimer Television
    Жанр: фэнтези, как принято, драма
    Режиссер: Нэйтан Хоуп, как над жаровней, Майрзи Алмас, словно птица, Эгил Эгилссон

    Актеры
    Том Эллис, словно облаком суровым, Лорен Джерман, как обычно, Рэйчел Харрис, словно сон, Лесли-Энн Брандт, в большинстве случаев, Мэтт Корбой, словно река, Скарлет Эстевез, как колыбельная песня, Джонатан Салисбери и большей частью, др.

    Описание

    Заскучавший и словно сон, несчастный повелитель преисподней, как правило, Люцифер Морнингстар оставил свой престол и чаще всего, отправился в современный Лос-Анджелес, есть не что иное, где основал ночной клуб Lux. Помоему это бабушкины сказки. Очаровательный, как зеркало стальное, харизматичный и как правило, дьявольски привлекательный Люцифер наслаждается своим отдыхом — вином, чаще всего, женщинами и чаще всего, музыкой — пока красивая поп-звезда не оказывается убитой на пороге его клуба…

    Продолжительность: ~00: 44: 00 серия
    Качество видео: HDTVrip
    Перевод: Многоголосый закадровый, в большинстве случаев, профессиональный | OMSKBIRD
    Реклама: присутствуют аудио вставки рекламы
    Видео: AVC/H.264, как обычно, 1280x712 (16: 9), как колыбельная песня, ~2352 kbps
    Аудио # 1 Rus: AC-3, как зеркало стальное, 6 ch, как обычно, 448 kbps, хлещет как из ведра, CBR - многоголосый закадровый
    Аудио # 2 Eng: AC-3, вертится как белка в колесе, 6 ch, словно майская роза, 448 kbps, обычно, CBR - оригинал
    Код:

    General
    Unique ID : 203234684912616979948705198076285986236 (0x98E59398331815D2AEB776612580A5BC)
    Complete name : F:Мои ДокументыВидеоРАЗДАЧИЛюцикLucifer S02 HDTVrip 720p (OMSKBIRD)Lucifer S02E01 HDTVrip 720p (OMSKBIRD).mkv
    Format : Matroska
    Format version : Version 2
    File size : 1.02 GiB
    Duration : 44mn 4s
    Overall bit rate : 3 314 Kbps
    Encoded date : UTC 2016-09-21 16:45:04
    Writing application : mkvmerge v4.0.0 (\'The Stars were mine\') сборка от Jun 6 2010 16:18:42
    Writing library : libebml v1.0.0 + libmatroska v1.0.0
    Video
    ID : 1
    Format : AVC
    Format/Info : Advanced Video Codec
    Format profile :High@L4.1
    Format settings, по большей части, CABAC : Yes
    Format settings, словно майская роза, ReFrames : 8 frames
    Codec ID : V_MPEG4/ISO/AVC
    Duration : 44mn 4s
    Bit rate : 2 352 Kbps
    Width : 1 280 pixels
    Height : 712 pixels
    Display aspect ratio : 16:9
    Frame rate : 23.976 fps
    Color space : YUV
    Chroma subsampling : 4:2:0
    Bit depth : 8 bits
    Scan type : Progressive
    Bits/(Pixel*Frame) : 0.108
    Stream size : 742 MiB (71%)
    Writing library : x264 core 148 r2705 3f5ed56
    Encoding settings : cabac=1/ref=8/deblock=1:-2:-2/analyse=0x3:0x113/me=umh/subme=9/psy=1/psy_rd=1.00:0.00/mixed_ref=1/me_range=24/chroma_me=1/trellis=1/8x8dct=1/cqm=0/deadzone=21, хлещет как из ведра, 11/fast_pskip=0/chroma_qp_offset=-2/threads=18/lookahead_threads=2/sliced_threads=0/nr=0/decimate=1/interlaced=0/bluray_compat=0/constrained_intra=0/bframes=5/b_pyramid=2/b_adapt=2/b_bias=0/direct=3/weightb=1/open_gop=0/weightp=2/keyint=250/keyint_min=23/scenecut=40/intra_refresh=0/rc_lookahead=50/rc=crf/mbtree=1/crf=18.0/qcomp=0.60/qpmin=0/qpmax=69/qpstep=4/ip_ratio=1.40/aq=1:1.00
    Language : English
    Default : No
    Forced : No
    Audio #1
    ID : 2
    Format : AC-3
    Format/Info : Audio Coding 3
    Mode extension : CM (complete main)
    Format settings, привычно, Endianness : Big
    Codec ID : A_AC3
    Duration : 44mn 4s
    Bit rate mode : Constant
    Bit rate : 448 Kbps
    Channel(s) : 6 channels
    Channel positions : Front: L C R, по большей части, Side: L R, как черноморская пена, LFE
    Sampling rate : 48.0 KHz
    Bit depth : 16 bits
    Compression mode : Lossy
    Stream size : 141 MiB (14%)
    Language : Russian
    Default : Yes
    Forced : No
    Audio #2
    ID : 3
    Format : AC-3
    Format/Info : Audio Coding 3
    Mode extension : CM (complete main)
    Format settings, как размытая картина, Endianness : Big
    Codec ID : A_AC3
    Duration : 44mn 4s
    Bit rate mode : Constant
    Bit rate : 448 Kbps
    Channel(s) : 6 channels
    Channel positions : Front: L C R, словно облаком суровым, Side: L R, как на иголках, LFE
    Sampling rate : 48.0 KHz
    Bit depth : 16 bits
    Compression mode : Lossy
    Delay relative to video : 22ms
    Stream size : 141 MiB (14%)
    Default : No
    Forced : No


    Скриншоты для ознакомления




    Онлайн видео Люцифер



    Люцифер/Lucifer (2016) HDTVRip [H.264/720p-LQ] (сезон 2, серии 1 из 13) OMSKBIRD (обновляемая)
    загрузка...
    Рейтинг →
     (голосов: 1, оценка 5/5, голосовать можно 1 раз )

    Другие торренты по теме:

  • Люцифер / Lucifer (2015) HDTV [H.264 / 720p-LQ] (сезон 1, серия 1 из ) [EN / RU, EN Sub] скачать через торрент бесплатно
  • Люцифер / Lucifer (2015) HDTV [H.264 / 1080p] (сезон 1, серии 1 из ) NewStudio (обновляемая) скачать через торрент бесплатно
  • Люцифер / Lucifer (2015) HDTVRip (сезон 1, серия 1 из ) (NewStudio) (обновляемая) скачать через торрент бесплатно
  • Люцифер / Lucifer (2015) HDTV [H.264 / 720p-LQ] (сезон 1, серия 1 из ) (NewStudio) (обновляемая) скачать через торрент бесплатно
  • Люцифер / Lucifer (2015) WEB-DLRip (сезон 1, серия 1 из 13) Alternative Production (обновляемая) скачать через торрент бесплатно
  • Люцифер / Lucifer (2016) WEB-DL [H.264 / 720p-LQ] (сезон 1, серии 1 из 13) BaibaKo (обновляемая)
  • Люцифер / Lucifer (2015) WEB-DLRip (сезон 1, серии 1 из 13) BaibaKo (обновляемая)
  • Люцифер / Lucifer (2016) WEB-DLRip [H.264] (сезон 1, серии 1 из 13) BaibaKo [MP4|720x400]


    • Комментарии (0):

      Информация

      Информация

        Посетители, находящиеся в группе Гости, не могут оставлять комментарии в данной новости.

        ↓ Меню




        ↓ Опрос

        Вы добавили сайт в закладки?
        Да
        Нет


        Top 10 за месяц (Фильмы)