.
Авторизация | Регистрация
Хочешь лучшие торренты? Добавь свой email!
Добавить

Торрент скачать бесплатно

» » Пёс (2016) SATRip [H.264] (сезон 2, серии 1-3 из 20) (обновляемая) торрент скачать бесплатно




    Пёс (2016) SATRip [H.264] (сезон 2, серии 1-3 из 20) (обновляемая) торрент скачать бесплатно

    Опубликовал: Админ | Дата: 23-09-2016, 16:12 | Просмотров: 13

    Производство: Украина/PRO-TV
    Жанр: детектив
    Режиссер: Николай Каптан, Игорь Забара

    Актеры
    Андрей Саминин, Никита Панфилов, Михаил Жонин, Ольга Олексий, Денис Роднянский, Светлана Зельбет, Ольга Морозова, Тарас Мельничук и др.

    Описание

    Макс – алкоголик. Когда-то лучший сыщик в городе, Макс потерял все – работу, друзей, жену. У него остался единственный друг – Пес. После серии погонь, драк и перестрелок, Пес и Макс раскрыли тайну загадочного убийства. Макс с Псом снова стали детективами. Самое интересное в это истории, что об этом Валуев ничего не знал. Теперь каждый день начинается с того, что Пес и Макс пытаются выяснить, кто совершил преступление... И выяснить – кто из них лучший сыщик в городе!

    Возраст: 16+ (зрителям, достигшим 16 лет)
    Релиз от: Files-х
    Продолжительность: ~ 00: 48: 00 серия
    Качество видео: SATRip
    Видео: AVC/H.264, 720x400 (16: 9), ~ 1624 Кбит/с
    Аудио: AC3, 2 канала, 192 Кбит/с
    Код:

    Общее
    Уникальный идентификатор : 231357861509849743307450379481960674404 (0xAE0DE740F8740E0EA79BC6E304AFF464)
    Полное имя : D:СЕРИАЛЫПес.2.(2016).SATRip AVC.Files-x1.Pes-2 2016.SATRip.AVC.by.Серый1779.Files-x.mkv
    Формат : Matroska
    Версия формата : Version 2
    Размер файла : 653 Мбайт
    Продолжительность : 49 м.
    Общий поток : 1853 Кбит/сек
    Дата кодирования : UTC 2016-09-19 23:29:01
    Программа кодирования : mkvmerge v6.1.0 (\'Old Devil\') built on Mar 4 2013 09:10:42
    Библиотека кодирования : libebml v1.3.0 + libmatroska v1.4.0
    Видео
    Идентификатор : 1
    Формат : AVC
    Формат/Информация : Advanced Video Codec
    Профиль формата :High@L3.1
    Параметр CABAC формата : Да
    Параметр ReFrames формата : 9 кадров
    Идентификатор кодека : V_MPEG4/ISO/AVC
    Продолжительность : 49 м.
    Битрейт : 1624 Кбит/сек
    Ширина : 720 пикселей
    Высота : 400 пикселей
    Соотношение сторон : 16:9
    Режим частоты кадров : Постоянный
    Частота кадров : 25, 000 кадров/сек
    Цветовое пространство : YUV
    Субдискретизация насыщенности : 4:2:0
    Битовая глубина : 8 бит
    Тип развёртки : Прогрессивная
    Бит/(Пиксели*Кадры) : 0.226
    Размер потока : 573 Мбайт (88%)
    Библиотека кодирования : x264 core 130 r2273 b3065e6
    Настройки программы : cabac=1/ref=9/deblock=1:-3:-3/analyse=0x3:0x133/me=umh/subme=9/psy=1/psy_rd=1.00:0.15/mixed_ref=1/me_range=32/chroma_me=1/trellis=2/8x8dct=1/cqm=0/deadzone=21, 11/fast_pskip=0/chroma_qp_offset=-3/threads=6/lookahead_threads=1/sliced_threads=0/nr=0/decimate=1/interlaced=fake/bluray_compat=0/constrained_intra=0/bframes=9/b_pyramid=2/b_adapt=2/b_bias=0/direct=1/weightb=1/open_gop=0/weightp=2/keyint=250/keyint_min=25/scenecut=40/intra_refresh=0/rc=crf/mbtree=0/crf=17.0/qcomp=0.60/qpmin=0/qpmax=69/qpstep=4/ip_ratio=1.40/pb_ratio=1.30/aq=2:1.00
    Default : Да
    Forced : Нет
    Цветовой диапазон : Limited
    Основные цвета : BT.601 PAL
    Характеристики трансфера : BT.470 System B, BT.470 System G
    Коэффициенты матрицы : BT.601
    Аудио
    Идентификатор : 2
    Формат : AC-3
    Формат/Информация : Audio Coding 3
    Расширение режима : CM (complete main)
    Параметр Endianness формата : Big
    Идентификатор кодека : A_AC3
    Продолжительность : 49 м.
    Вид битрейта : Постоянный
    Битрейт : 192 Кбит/сек
    Каналы : 2 канала
    Расположение каналов : Front: L R
    Частота : 48, 0 КГц
    Частота кадров : 31, 250 кадров/сек (1536 spf)
    Метод сжатия : С потерями
    Размер потока : 67, 7 Мбайт (10%)
    Default : Да
    Forced : Нет


    Скриншоты для ознакомления




    Онлайн видео Пёс (2016) SATRip [H.264] (сезон любимого сериала 2, серии 1



    Пёс (2016) SATRip [H.264] (сезон 2, серии 1-3 из 20) (обновляемая)
    загрузка...
    Рейтинг →
     (голосов: 1, оценка 4/5, голосовать можно 1 раз )

    Другие торренты по теме:

  • Доктор Рихтер / Доктор Хаус (2016) SATRip (сезон 1, серии 1-2 из 21) (обновляемая) [AD]
  • Где логика (2017.11.15) SATRip (сезон 5, выпуск 14)
  • Однажды в России (2017.11.15) SATRip (сезон 6, выпуск 12: Дайджест)
  • Расшифрованные сокровища (Сокровища мира) / Treasures Decoded (2013-2016) SATRip (Сезон 1, эпизоды 1-5 из 5 Сезон 2, эпизоды 1-6 из 6 Сезон 3, эпизоды 1-6 из 6)
  • Орел и решка. Кругосветка (2016) SATRip (сезон 12: Полный сезон!!!)
  • Мук / Mouk (2011) SATRip (сезон 1, 1-57 и 59-62 серии из 62 и 20 бонусов из 30) (обновляемая)
  • Универ (2014) SATRip (Сезон 7, серии 1-16(121-136)) (Обновляемая)
  • Приключения отважных кузенов / The Country Mouse and the City Mouse Adventures (1997) SATRip (Сезон 1-3, 51 серия из 52)


    • Комментарии (0):

      Информация

      Информация

        Посетители, находящиеся в группе Гости, не могут оставлять комментарии в данной новости.

        ↓ Меню




        ↓ Опрос

        Вы добавили сайт в закладки?
        Да
        Нет


        Top 10 за месяц (Фильмы)