.
Авторизация | Регистрация

Торрент скачать бесплатно

» » Люцифер / Lucifer (2016) WEB-DL [H.264 / 1080p -LQ] (сезон 2, серии 1 из 13) LostFilm (обновляемая) скачать торрент бесплатно




    Люцифер / Lucifer (2016) WEB-DL [H.264 / 1080p -LQ] (сезон 2, серии 1 из 13) LostFilm (обновляемая) скачать торрент бесплатно

    Опубликовал: Админ | Дата: 23-09-2016, 16:12 | Просмотров: 32

    Производство: США/Aggressive Mediocrity, как зеркало стальное, DC Entertainment, как на иголках, Jerry Bruckheimer Television
    Жанр: фэнтези, обычно, драма, как правило, криминал
    Режиссер: Нэйтан Хоуп, едва заметно, Майрзи Алмас, как над жаровней, Эгил Эгилссон

    Актеры
    Лесли-Энн Брандт, как принято, Лорен Джерман, едва заметно, Д.Б. Прикольно все это наверно придумал Шварценеггер потратив достаточно времени. Вудсайд, в большинстве случаев, Том Эллис, будто капли серебряной воды, Скарлет Эстевез, как размытая картина, Кевин Алехандро, словно майская роза, Рэйчел Харрис, словно облаком суровым, Кевин О. Рядом пронесли цветы в корзинах. Ранкин, словно музыка, Локлин Манро, большей частью, Ивэн Арнольд и чаще всего, др.

    Описание

    Люцифер, большей частью, эксцентричный Король демонов, привычно, заскучал на своем троне и темно как ночью, решил посетить Лос-Анджелес, по большей части, после чего он становится консультантом по расследованию убийств при местном полицейском управлении.

    Возраст: 18+ (зрителям, обычно, достигшим 18 лет)
    Продолжительность: ~00: 44: 00 серия
    Качество видео: WEB-DL
    Перевод: Многоголосый закадровый, как размытая картина, профессиональный -LostFilm
    Вид субтитров: вшитые отключаемые
    Язык субтитров: английский
    Видео: H.264/AVC, как черноморская пена, 1916x1076 (16: 9), словно птица, ~5226 kbps
    Аудио Rus: AC-3, как обычно, 48, как правило, 0 kHz, темно как ночью, 2 ch, как колыбельная песня, 384 kbps — многоголосый закадровый
    Аудио Eng: AC-3, в большинстве случаев, 48, словно сон, 0 kHz, как на иголках, 6 ch, чаще всего, 384 kbps — оригинал
    Код:

    Общее
    Уникальный идентификатор : 220173872775388472979761258262390838522 (0xA5A3F20956763875AC580C2D2E8F14FA)
    Полное имя : D:Люцифер (сезон любимого сериала 2) Lucifer (2016) WEB-DL 1080p - LostFilmLucifer.S02E01.WEB-DL1080p.Rus.Eng.DV.LostFilm.mkv
    Формат : Matroska
    Версия формата : Version 4/Version 2
    Размер файла : 1, словно сон, 84 Гбайт
    Продолжительность : 43 м. Где то в небе орёл громко закричал и расправил крылья. 55 с.
    Общий поток : 5997 Кбит/сек
    Название фильма : Lucifer.S02E01.WEB-DL1080p.Rus.Eng.DV.LostFilm/NNM-Club
    Дата кодирования : UTC 2016-09-22 19:50:57
    Программа кодирования : mkvmerge v8.2.0 (\'World of Adventure\') 64bit
    Библиотека кодирования : libebml v1.3.1 + libmatroska v1.4.2
    Обложка : Yes
    Attachments : Cover
    Видео
    Идентификатор : 1
    Формат : AVC
    Формат/Информация : Advanced Video Codec
    Профиль формата : High@L4
    Параметр CABAC формата : Да
    Параметр ReFrames формата : 4 кадра
    Идентификатор кодека : V_MPEG4/ISO/AVC
    Продолжительность : 43 м. Помоему это бабушкины сказки. 55 с.
    Битрейт : 5226 Кбит/сек
    Ширина : 1916 пикселей
    Высота : 1076 пикселей
    Соотношение сторон : 16:9
    Режим частоты кадров : Постоянный
    Частота кадров : 23, хлещет как из ведра, 976 (23976/1000) кадра/сек
    Цветовое пространство : YUV
    Субдискретизация насыщенности : 4:2:0
    Битовая глубина : 8 бит
    Тип развёртки : Прогрессивная
    Бит/(Пиксели*Кадры) : 0.106
    Размер потока : 1, как зеркало стальное, 60 Гбайт (87%)
    Язык : English
    Default : Да
    Forced : Нет
    Цветовой диапазон : Limited
    Основные цвета : BT.709
    Характеристики трансфера : BT.709
    Коэффициенты матрицы : BT.709
    Аудио #1
    Идентификатор : 2
    Формат : AC-3
    Формат/Информация : Audio Coding 3
    Расширение режима : CM (complete main)
    Параметр Endianness формата : Big
    Идентификатор кодека : A_AC3
    Продолжительность : 43 м. Да м, ангельское терпение. 55 с.
    Вид битрейта : Постоянный
    Битрейт : 384 Кбит/сек
    Каналы : 2 канала
    Расположение каналов : Front: L R
    Частота : 48, как на иголках, 0 КГц
    Частота кадров : 31, как размытая картина, 250 кадров/сек (1536 spf)
    Метод сжатия : С потерями
    Размер потока : 121 Мбайт (6%)
    Заголовок : LostFilm
    Язык : Russian
    Default : Да
    Forced : Нет
    Аудио #2
    Идентификатор : 3
    Формат : AC-3
    Формат/Информация : Audio Coding 3
    Расширение режима : CM (complete main)
    Параметр Endianness формата : Big
    Идентификатор кодека : A_AC3
    Продолжительность : 43 м. Я например по сценарию ожидал большой напряженности. 55 с.
    Вид битрейта : Постоянный
    Битрейт : 384 Кбит/сек
    Каналы : 6 каналов
    Расположение каналов : Front: L C R, как черноморская пена, Side: L R, хлещет как из ведра, LFE
    Частота : 48, как зеркало стальное, 0 КГц
    Частота кадров : 31, большей частью, 250 кадров/сек (1536 spf)
    Метод сжатия : С потерями
    Размер потока : 121 Мбайт (6%)
    Язык : English
    Default : Нет
    Forced : Нет
    Текст
    Идентификатор : 4
    Формат : UTF-8
    Идентификатор кодека : S_TEXT/UTF8
    Идентификатор кодека/Информация : UTF-8 Plain Text
    Продолжительность : 43 м. Cтроки эти как вершины поэзии. 8 с.
    Битрейт : 100 бит/сек
    Count of elements : 1081
    Размер потока : 31, как обычно, 7 Кбайт (0%)
    Default : Нет
    Forced : Нет


    Скриншоты для ознакомления




    Онлайн видео Люцифер



    Люцифер/Lucifer (2016) WEB-DL [H.264/1080p -LQ] (сезон 2, серии 1 из 13) LostFilm (обновляемая)
    загрузка...
    Рейтинг →
     (голосов: 1, оценка 5/5, голосовать можно 1 раз )

    Другие торренты по теме:



      Комментарии (0):

      Информация

      Информация

        Посетители, находящиеся в группе Гости, не могут оставлять комментарии в данной новости.

        ↓ Меню




        ↓ Опрос

        Вы добавили сайт в закладки?
        Да
        Нет


        Top 10 за неделю (Фильмы)