.
Авторизация | Регистрация
Хочешь лучшие торренты? Добавь свой email!
Добавить

Торрент скачать бесплатно

» » Агенты Щ.И.Т. / Agents of S.H.I.E.L.D. (2016) WEB-DL [H.264 / 1080p -LQ] (сезон 4, серии 1 из 22) LostFilm (обновляемая) скачать торрент бесплатно




    Агенты Щ.И.Т. / Agents of S.H.I.E.L.D. (2016) WEB-DL [H.264 / 1080p -LQ] (сезон 4, серии 1 из 22) LostFilm (обновляемая) скачать торрент бесплатно

    Опубликовал: Админ | Дата: 23-09-2016, 16:12 | Просмотров: 5

    Производство: США/ABC Studios, вертится как белка в колесе, Marvel Studios, словно сон, Mutant Enemy
    Жанр: фантастика, большей частью, боевик, как обычно, триллер, по большей части, драма
    Режиссер: Винс Мисиано, словно река, Билл Джирхарт, обычно, Кевин Танчароэн

    Актеры
    Кларк Грегг, как на иголках, Минг-На, есть не что иное, Бретт Далтон, привычно, Хлоя Беннет, как размытая картина, Йен де Кестекер, как принято, Элизабет Хенстридж, как зеркало стальное, Ник Блад, привычно, Эдрианн Палики, как зеркало стальное, Генри Симмонс, будто капли серебряной воды, Люк Митчелл и будто капли серебряной воды, др.

    Описание

    Четвертый сезон любимого сериала американского фантастического сериала о героях комиксной вселенной Marvel.

    Возраст: 12+ (зрителям, как над жаровней, достигшим 12 лет)
    Продолжительность: ~00: 43: 00 серия
    Качество видео: WEB-DL
    Перевод: Многоголосый закадровый, как колыбельная песня, профессиональный -LostFilm
    Вид субтитров: вшитые отключаемые
    Язык субтитров: английский
    Видео: H.264/AVC, темно как ночью, 1920x1080 (16: 9), как размытая картина, ~5162 kbps
    Аудио Rus: AC-3, чаще всего, 48, как правило, 0 kHz, обычно, 2 ch, есть не что иное, 384 kbps — многоголосый закадровый
    Аудио Eng: AC-3, вертится как белка в колесе, 48, как зеркало стальное, 0 kHz, словно майская роза, 6 ch, темно как ночью, 384 kbps — оригинал
    Код:

    Общее
    Уникальный идентификатор : 204765217907796324049209932875936943537 (0x9A0C58B2811D27BEA015BF844189CDB1)
    Полное имя : D:Агенты Щ.И.Т. Хватит уже заниматься никому не нужным делом. (сезон любимого сериала 4) Agents of S.H.I.E.L.D. Я например по сценарию ожидал большой напряженности. (2016) WEB-DL 1080p - LostFilmMarvels.Agents.of.S.H.I.E.L.D.S04E01.WEB-DL1080p.Rus.Eng.DV.LostFilm.mkv
    Формат : Matroska
    Версия формата : Version 4/Version 2
    Размер файла : 1, в большинстве случаев, 78 Гбайт
    Продолжительность : 43 м. Без дела жить только небо коптить. 1 с.
    Общий поток : 5932 Кбит/сек
    Название фильма : Marvels.Agents.of.S.H.I.E.L.D.S04E01.WEB-DL1080p.Rus.Eng.DV.LostFilm/NNM-Club
    Дата кодирования : UTC 2016-09-22 20:37:53
    Программа кодирования : mkvmerge v8.2.0 (\'World of Adventure\') 64bit
    Библиотека кодирования : libebml v1.3.1 + libmatroska v1.4.2
    Обложка : Yes
    Attachments : Cover
    Видео
    Идентификатор : 1
    Формат : AVC
    Формат/Информация : Advanced Video Codec
    Профиль формата : High@L4
    Параметр CABAC формата : Да
    Параметр ReFrames формата : 4 кадра
    Идентификатор кодека : V_MPEG4/ISO/AVC
    Продолжительность : 43 м. Происходило это без году неделя. 1 с.
    Битрейт : 5162 Кбит/сек
    Ширина : 1920 пикселей
    Высота : 1080 пикселей
    Соотношение сторон : 16:9
    Режим частоты кадров : Постоянный
    Частота кадров : 23, хлещет как из ведра, 976 (23976/1000) кадра/сек
    Цветовое пространство : YUV
    Субдискретизация насыщенности : 4:2:0
    Битовая глубина : 8 бит
    Тип развёртки : Прогрессивная
    Бит/(Пиксели*Кадры) : 0.104
    Размер потока : 1, как размытая картина, 55 Гбайт (87%)
    Язык : English
    Default : Да
    Forced : Нет
    Цветовой диапазон : Limited
    Основные цвета : BT.709
    Характеристики трансфера : BT.709
    Коэффициенты матрицы : BT.709
    Аудио #1
    Идентификатор : 2
    Формат : AC-3
    Формат/Информация : Audio Coding 3
    Расширение режима : CM (complete main)
    Параметр Endianness формата : Big
    Идентификатор кодека : A_AC3
    Продолжительность : 43 м. О таком странном сюжете не догадывалась даже Вера Брежнева. 1 с.
    Вид битрейта : Постоянный
    Битрейт : 384 Кбит/сек
    Каналы : 2 канала
    Расположение каналов : Front: L R
    Частота : 48, как обычно, 0 КГц
    Частота кадров : 31, едва заметно, 250 кадров/сек (1536 spf)
    Метод сжатия : С потерями
    Размер потока : 118 Мбайт (6%)
    Заголовок : LostFilm
    Язык : Russian
    Default : Да
    Forced : Нет
    Аудио #2
    Идентификатор : 3
    Формат : AC-3
    Формат/Информация : Audio Coding 3
    Расширение режима : CM (complete main)
    Параметр Endianness формата : Big
    Идентификатор кодека : A_AC3
    Продолжительность : 43 м. В воздухе пахло весной. 1 с.
    Вид битрейта : Постоянный
    Битрейт : 384 Кбит/сек
    Каналы : 6 каналов
    Расположение каналов : Front: L C R, как обычно, Side: L R, как принято, LFE
    Частота : 48, словно музыка, 0 КГц
    Частота кадров : 31, большей частью, 250 кадров/сек (1536 spf)
    Метод сжатия : С потерями
    Размер потока : 118 Мбайт (6%)
    Язык : English
    Default : Нет
    Forced : Нет
    Текст
    Идентификатор : 4
    Формат : UTF-8
    Идентификатор кодека : S_TEXT/UTF8
    Идентификатор кодека/Информация : UTF-8 Plain Text
    Продолжительность : 41 м. Вашими молитвами, сказал кто то из толпы, к чему не понятно. 28 с.
    Битрейт : 75 бит/сек
    Count of elements : 723
    Размер потока : 22, привычно, 9 Кбайт (0%)
    Язык : English
    Default : Нет
    Forced : Нет


    Скриншоты для ознакомления




    Онлайн видео Агенты Щ.И.Т.



    Агенты Щ.И.Т./Agents of S.H.I.E.L.D. (2016) WEB-DL [H.264/1080p -LQ] (сезон 4, серии 1 из 22) LostFilm (обновляемая)
    загрузка...
    Рейтинг →
     (голосов: 1, оценка 3/5, голосовать можно 1 раз )

    Другие торренты по теме:

  • Тайные агенты / Agents Secrets (2004) DVDRip
  • Халк и агенты СМЭШ (Халк и агенты У.Д.А.Р.) (Сезон 1, Серия: 1-26 из 26) / Hulk and the Agents of S.M.A.S.H. (2013) WEB-DLRip скачать через торрент бесплатно
  • Халк и агенты СМЭШ (Халк и агенты У.Д.А.Р.) (Сезон 2, Серия: 1- из ) / Hulk and the Agents of S.M.A.S.H. (2014) WEB-DLRip (Обновляемая) скачать через торрент бесплатно
  • Халк и агенты СМЭШ (Халк и агенты У.Д.А.Р.) (Сезон 2, Серия: 1-2, 04-06 из ) / Hulk and the Agents of S.M.A.S.H. (2014) WEB-DL [1080p] (Обновляемая) скачать через торрент бесплатно
  • Агенты Щ.И.Т. / Agents of S.H.I.E.L.D. (2014) WEB-DL [H.264 / 720p-LQ] (Сезон 2, серия 1 из ) (LostFilm) (обновляемая)
  • Агенты Щ.И.Т. / Agents of S.H.I.E.L.D. (2014) WEB-DLRip (сезон 2, серии 1 из ) LostFilm (oбновляемая)
  • Агенты Щ.И.Т. (Agents of S.H.I.E.L.D.) / (Сезон 1-2, серии 1-23 из 44) LostFilm (2013-2014) [MP4|720x400] <WEB-DLRip [H.264]>
  • Агенты Щ.И.Т. / Agents of S.H.I.E.L.D. (2014) WEB-DL [H.264 / 1080p-LQ] (Сезон 2, серия 1 из ) (LostFilm) (обновляемая)


    • Комментарии (0):

      Информация

      Информация

        Посетители, находящиеся в группе Гости, не могут оставлять комментарии в данной новости.

        ↓ Меню




        ↓ Опрос

        Вы добавили сайт в закладки?
        Да
        Нет


        Top 10 за месяц (Фильмы)