.
Авторизация | Регистрация
Хочешь лучшие торренты? Добавь свой email!
Добавить

Торрент скачать бесплатно

» » Агенты Щ.И.Т. / Agents of S.H.I.E.L.D. (2016) WEB-DLRip (сезон 4, серии 1 из 22) LostFilm (обновляемая) торрент скачать бесплатно




    Агенты Щ.И.Т. / Agents of S.H.I.E.L.D. (2016) WEB-DLRip (сезон 4, серии 1 из 22) LostFilm (обновляемая) торрент скачать бесплатно

    Опубликовал: Админ | Дата: 23-09-2016, 16:12 | Просмотров: 78

    Производство: США/ABC Studios, Marvel Studios, Mutant Enemy
    Жанр: фантастика, боевик, триллер, драма
    Режиссер: Винс Мисиано, Билл Джирхарт, Кевин Танчароэн

    Актеры
    Кларк Грегг, Минг-На, Бретт Далтон, Хлоя Беннет, Йен де Кестекер, Элизабет Хенстридж, Ник Блад, Эдрианн Палики, Генри Симмонс, Люк Митчелл и др.

    Описание

    Четвертый сезон любимого сериала американского фантастического сериала о героях комиксной вселенной Marvel.

    Возраст: 12+ (зрителям, достигшим 12 лет)
    Продолжительность: ~00: 43: 00 серия
    Качество видео: WEB-DLRip
    Перевод: Многоголосый закадровый, профессиональный -LostFilm
    Видео: XviD, 720x400 (16: 9), ~1500 kbps
    Аудио Rus: MP3, 48, 0 kHz, 2 ch, 128 kbps — многоголосый закадровый
    Аудио Eng: MP3, 48, 0 kHz, 2 ch, 128 kbps — оригинал
    Код:

    Общее
    Полное имя : D:Агенты Щ.И.Т. (сезон любимого сериала 4) Agents of S.H.I.E.L.D. (2016) WEB-DLRip - LostFilmMarvels.Agents.of.S.H.I.E.L.D.S04E01.WEB-DLRip.Rus.Eng.DV.LostFilm.avi
    Формат : AVI
    Формат/Информация : Audio Video Interleave
    Размер файла : 545 Мбайт
    Продолжительность : 43 м. 1 с.
    Общий поток : 1772 Кбит/сек
    Название фильма : Marvels.Agents.of.S.H.I.E.L.D.S04E01.WEB-DLRip.Rus.Eng.DV.LostFilm/NNM-Club
    Программа кодирования : VirtualDubModRus 1.5.10.2 (build 2542/release)
    Библиотека кодирования : VirtualDubMod build 2542/release
    Видео
    Идентификатор : 0
    Формат : MPEG-4 Visual
    Профиль формата : Advanced Simple@L5
    Параметр BVOP формата : 2
    Параметр QPel формата : Нет
    Параметр GMC формата : Без точки перехода
    Параметр матрицы формата : Default (H.263)
    Идентификатор кодека : XVID
    Идентификатор кодека/Подсказка : XviD
    Продолжительность : 43 м. 1 с.
    Битрейт : 1502 Кбит/сек
    Ширина : 720 пикселей
    Высота : 400 пикселей
    Соотношение сторон : 16:9
    Частота кадров : 23, 976 (24000/1001) кадра/сек
    Цветовое пространство : YUV
    Субдискретизация насыщенности : 4:2:0
    Битовая глубина : 8 бит
    Тип развёртки : Прогрессивная
    Метод сжатия : С потерями
    Бит/(Пиксели*Кадры) : 0.217
    Размер потока : 462 Мбайт (85%)
    Заголовок : Rip by DriverV/NNM-Club
    Библиотека кодирования : XviD 64
    Аудио #1
    Идентификатор : 1
    Формат : MPEG Audio
    Версия формата : Version 1
    Профиль формата : Layer 3
    Режим : Joint stereo
    Расширение режима : MS Stereo
    Идентификатор кодека : 55
    Идентификатор кодека/Подсказка : MP3
    Продолжительность : 43 м. 1 с.
    Вид битрейта : Постоянный
    Битрейт : 128 Кбит/сек
    Каналы : 2 канала
    Частота : 48, 0 КГц
    Метод сжатия : С потерями
    Размер потока : 39, 4 Мбайт (7%)
    Выравнивание : Соединение по промежуткам
    Продолжительность промежутка : 42 мс. (1, 00 видеокадр)
    Время предзагрузки промежутка : 504 мс.
    Аудио #2
    Идентификатор : 2
    Формат : MPEG Audio
    Версия формата : Version 1
    Профиль формата : Layer 3
    Режим : Joint stereo
    Расширение режима : MS Stereo
    Идентификатор кодека : 55
    Идентификатор кодека/Подсказка : MP3
    Продолжительность : 43 м. 1 с.
    Вид битрейта : Постоянный
    Битрейт : 128 Кбит/сек
    Каналы : 2 канала
    Частота : 48, 0 КГц
    Метод сжатия : С потерями
    Размер потока : 39, 4 Мбайт (7%)
    Выравнивание : Соединение по промежуткам
    Продолжительность промежутка : 42 мс. (1, 00 видеокадр)
    Время предзагрузки промежутка : 504 мс.


    Скриншоты для ознакомления




    Онлайн видео Агенты Щ.И.Т.



    Агенты Щ.И.Т./Agents of S.H.I.E.L.D. (2016) WEB-DLRip (сезон 4, серии 1 из 22) LostFilm (обновляемая)
    загрузка...
    Рейтинг →
     (голосов: 1, оценка 3/5, голосовать можно 1 раз )

    Другие торренты по теме:

  • Тайные агенты / Agents Secrets (2004) DVDRip
  • Халк и агенты СМЭШ (Халк и агенты У.Д.А.Р.) (Сезон 1, Серия: 1-26 из 26) / Hulk and the Agents of S.M.A.S.H. (2013) WEB-DLRip скачать через торрент бесплатно
  • Халк и агенты СМЭШ (Халк и агенты У.Д.А.Р.) (Сезон 2, Серия: 1- из ) / Hulk and the Agents of S.M.A.S.H. (2014) WEB-DLRip (Обновляемая) скачать через торрент бесплатно
  • Халк и агенты СМЭШ (Халк и агенты У.Д.А.Р.) (Сезон 2, Серия: 1-2, 04-06 из ) / Hulk and the Agents of S.M.A.S.H. (2014) WEB-DL [1080p] (Обновляемая) скачать через торрент бесплатно
  • Агенты Щ.И.Т. / Agents of S.H.I.E.L.D. (2014) WEB-DL [H.264 / 720p-LQ] (Сезон 2, серия 1 из ) (LostFilm) (обновляемая)
  • Агенты Щ.И.Т. / Agents of S.H.I.E.L.D. (2014) WEB-DLRip (сезон 2, серии 1 из ) LostFilm (oбновляемая)
  • Агенты Щ.И.Т. (Agents of S.H.I.E.L.D.) / (Сезон 1-2, серии 1-23 из 44) LostFilm (2013-2014) [MP4|720x400] <WEB-DLRip [H.264]>
  • Агенты Щ.И.Т. / Agents of S.H.I.E.L.D. (2014) WEB-DL [H.264 / 1080p-LQ] (Сезон 2, серия 1 из ) (LostFilm) (обновляемая)


    • Комментарии (0):

      Информация

      Информация

        Посетители, находящиеся в группе Гости, не могут оставлять комментарии в данной новости.

        ↓ Меню




        ↓ Опрос

        Вы добавили сайт в закладки?
        Да
        Нет


        Top 10 за месяц (Фильмы)