.
Авторизация | Регистрация
Хочешь лучшие торренты? Добавь свой email!
Добавить

Торрент скачать бесплатно

» » Пёс (2016) WEB-DLRip (сезон 2, серии 1-4 из 20) (обновляемая) торрент скачать бесплатно




    Пёс (2016) WEB-DLRip (сезон 2, серии 1-4 из 20) (обновляемая) торрент скачать бесплатно

    Опубликовал: Админ | Дата: 23-09-2016, 16:12 | Просмотров: 8

    Производство: Украина/PRO-TV
    Жанр: детектив
    Режиссер: Николай Каптан, Игорь Забара

    Актеры
    Андрей Саминин, Никита Панфилов, Михаил Жонин, Ольга Олексий, Денис Роднянский, Светлана Зельбет, Ольга Морозова, Тарас Мельничук и др.

    Описание

    Макс – алкоголик. Когда-то лучший сыщик в городе, Макс потерял все – работу, друзей, жену. У него остался единственный друг – Пес. После серии погонь, драк и перестрелок, Пес и Макс раскрыли тайну загадочного убийства. Макс с Псом снова стали детективами. Теперь каждый день начинается с того, что Пес и Макс пытаются выяснить, кто совершил преступление... И выяснить – кто из них лучший сыщик в городе!

    Возраст: 16+ (зрителям, достигшим 16 лет)
    Релиз от: Files-х
    Продолжительность: ~00: 48: 00 серия
    Качество видео: WEB-DLRip
    Видео: Xvid, 720x400 (16: 9), ~1482 Кбит/с
    Аудио: AC3, 2 канала, 192 Кбит/с
    Код:

    Общее
    Полное имя : D:СЕРИАЛЫPes-2 2016.WEB-DLRip.RG.Russkie.serialy..Files-x1.Pes-2 2016.WEB-DLRip.RG.Russkie.serialy..Files-x.avi
    Формат : AVI
    Формат/Информация : Audio Video Interleave
    Размер файла : 601 Мбайт
    Продолжительность : 49 м.
    Общий поток : 1683 Кбит/сек
    Программа кодирования : VirtualDubMod 1.5.10.3 |www.virtualdub-fr.org|| (build 2550/release)
    Библиотека кодирования : VirtualDubMod build 2550/release
    Видео
    Идентификатор : 0
    Формат : MPEG-4 Visual
    Профиль формата : Advanced Simple@L5
    Параметр BVOP формата : 1
    Параметр QPel формата : Нет
    Параметр GMC формата : Без точки перехода
    Параметр матрицы формата : Выборочная
    Идентификатор кодека : XVID
    Идентификатор кодека/Подсказка : XviD
    Продолжительность : 49 м.
    Битрейт : 1482 Кбит/сек
    Ширина : 720 пикселей
    Высота : 400 пикселей
    Соотношение сторон : 16:9
    Частота кадров : 25, 000 кадров/сек
    Цветовое пространство : YUV
    Субдискретизация насыщенности : 4:2:0
    Битовая глубина : 8 бит
    Тип развёртки : Прогрессивная
    Метод сжатия : С потерями
    Бит/(Пиксели*Кадры) : 0.206
    Размер потока : 529 Мбайт (88%)
    Библиотека кодирования : XviD 73
    Аудио
    Идентификатор : 1
    Формат : AC-3
    Формат/Информация : Audio Coding 3
    Расширение режима : CM (complete main)
    Параметр Endianness формата : Big
    Идентификатор кодека : 2000
    Продолжительность : 49 м.
    Вид битрейта : Постоянный
    Битрейт : 192 Кбит/сек
    Каналы : 2 канала
    Расположение каналов : Front: L R
    Частота : 48, 0 КГц
    Частота кадров : 31, 250 кадров/сек (1536 spf)
    Метод сжатия : С потерями
    Размер потока : 68, 5 Мбайт (11%)
    Выравнивание : Разделение по промежуткам
    Продолжительность промежутка : 40 мс. Самое интересное в это истории, что об этом Медведев ничего не знал. (1, 00 видеокадр)
    Время предзагрузки промежутка : 500 мс.


    Скриншоты для ознакомления




    Онлайн видео Пёс (2016) WEB



    Пёс (2016) WEB-DLRip (сезон 2, серии 1-4 из 20) (обновляемая)
    загрузка...
    Рейтинг →
     (голосов: 1, оценка 3/5, голосовать можно 1 раз )

    Другие торренты по теме:

  • Каратель / The Punisher (2017) WEB-DLRip (сезон 1, серии 1-13 из 13) IdeaFilm (обновляемая) [AD]
  • Где логика (2017.11.20) WEB-DLRip (сезон 5, выпуск 15)
  • Битва экстрасенсов. Сезон №15. Выпуск №6 (2014) WEB-DLRip скачать через торрент бесплатно
  • Рассмеши комика. Сезон №9. Выпуск №1 (2015.02.21) WEB-DLRip
  • Халк и агенты СМЭШ (Халк и агенты У.Д.А.Р.) (Сезон 1, Серия: 1-26 из 26) / Hulk and the Agents of S.M.A.S.H. (2013) WEB-DLRip скачать через торрент бесплатно
  • Команда «Мстители» (Сезон 1, Серия: 1-26 из 26) / Мстители, общий сбор / Marvels Avengers Assemble (2013) WEB-DLRip скачать через торрент бесплатно
  • Выжить в лесу. Крымский сезон (2016) WEB-DLRip
  • Орел и решка. Рай и ад (2017) WEB-DLRip (сезон 13, выпуски 1-20 из 20) (Полный сезон!!!)


    • Комментарии (0):

      Информация

      Информация

        Посетители, находящиеся в группе Гости, не могут оставлять комментарии в данной новости.

        ↓ Меню




        ↓ Опрос

        Вы добавили сайт в закладки?
        Да
        Нет


        Top 10 за месяц (Фильмы)