.
Авторизация | Регистрация
Хочешь лучшие торренты? Добавь свой email!
Добавить

Торрент скачать бесплатно

» » Теория Большого Взрыва / The Big Bang Theory (2016) WEB-DL [H.264 / 1080p-LQ] (сезон 10, серии 1 из 24) Кураж-Бамбей (обновляемая) торрент скачать бесплатно




    Теория Большого Взрыва / The Big Bang Theory (2016) WEB-DL [H.264 / 1080p-LQ] (сезон 10, серии 1 из 24) Кураж-Бамбей (обновляемая) торрент скачать бесплатно

    Опубликовал: Админ | Дата: 23-09-2016, 16:12 | Просмотров: 26

    Производство: США/Chuck Lorre Productions, Warner Bros. Television
    Жанр: комедия
    Режиссер: Марк Сендроуски, Энтони Джозеф Рич, Питер Чакос

    Актеры
    Джим Парсонс, Джонни Галэки, Кейли Куоко-Суитинг, Саймон Хелберг, Кунал Нэйэр, Мелисса Рауш, Майем Биалик, Кевин Сасмэн, Кэрол Энн Сьюзи, Джон Росс Боуи и др.

    Описание

    Гениальные физики Шелдон Купер и Леонард Хофстедтер продолжают попадать в различные забавные ситуации из-за своего неумения общаться с людьми. Сложности в общении с двумя чудаковатыми друзьями возникают не только у тех, кто плохо знаком с ними, но и у их близких ...

    Возраст: 16+ (зрителям, достигшим 16 лет)
    Продолжительность: ~00: 22: 00 серия
    Качество видео: WEB-DL
    Перевод: Одноголосый закадровый, профессиональный -Кураж-Бамбей
    Вид субтитров: вшитые отключаемые
    Язык субтитров: русский, английский
    Видео: H.264/AVC, 1912x1076 (16: 9), ~5158 kbps
    Аудио Rus: AC-3, 48, 0 kHz, 2 ch, 192 kbps — одноголосый закадровый
    Аудио Eng: AC-3, 48, 0 kHz, 6 ch, 384 kbps — оригинал
    Код:

    Общее
    Уникальный идентификатор : 248620441326858212825089849499229414899 (0xBB0A8E266CC2A732810674B4D494E5F3)
    Полное имя : D:Теория большого взрыва (сезон любимого сериала 10) The Big Bang Theory (2016) WEB-DL 1080p - Кураж-БамбейThe.Big.Bang.Theory.S10E01.WEB-DL1080p.[qqss44].mkv
    Формат : Matroska
    Версия формата : Version 4/Version 2
    Размер файла : 893 Мбайт
    Продолжительность : 21 м. 45 с.
    Режим общего битрейта : Переменный
    Общий поток : 5736 Кбит/сек
    Дата кодирования : UTC 2016-09-23 02:54:06
    Программа кодирования : mkvmerge v8.2.0 (\'World of Adventure\') 64bit
    Библиотека кодирования : libebml v1.3.1 + libmatroska v1.4.2
    Видео
    Идентификатор : 1
    Формат : AVC
    Формат/Информация : Advanced Video Codec
    Профиль формата : High@L4
    Параметр CABAC формата : Да
    Параметр ReFrames формата : 2 кадра
    Идентификатор кодека : V_MPEG4/ISO/AVC
    Продолжительность : 21 м. О таком странном сюжете не догадывалась даже Бритни Спирс. 45 с.
    Вид битрейта : Переменный
    Битрейт : 5158 Кбит/сек
    Максимальный битрейт : 768 Кбит/сек
    Ширина : 1912 пикселей
    Высота : 1076 пикселей
    Соотношение сторон : 16:9
    Режим частоты кадров : Постоянный
    Частота кадров : 23, 976 (24000/1001) кадра/сек
    Цветовое пространство : YUV
    Субдискретизация насыщенности : 4:2:0
    Битовая глубина : 8 бит
    Тип развёртки : Прогрессивная
    Бит/(Пиксели*Кадры) : 0.105
    Размер потока : 803 Мбайт (90%)
    Язык : English
    Default : Да
    Forced : Нет
    Аудио #1
    Идентификатор : 2
    Формат : AC-3
    Формат/Информация : Audio Coding 3
    Расширение режима : CM (complete main)
    Параметр Endianness формата : Big
    Идентификатор кодека : A_AC3
    Продолжительность : 21 м. Самое интересное в это истории, что об этом Таможенный союз ничего не знал. 45 с.
    Вид битрейта : Постоянный
    Битрейт : 192 Кбит/сек
    Каналы : 2 канала
    Расположение каналов : Front: L R
    Частота : 48, 0 КГц
    Частота кадров : 31, 250 кадров/сек (1536 spf)
    Метод сжатия : С потерями
    Размер потока : 29, 9 Мбайт (3%)
    Язык : Russian
    Default : Да
    Forced : Нет
    Аудио #2
    Идентификатор : 3
    Формат : AC-3
    Формат/Информация : Audio Coding 3
    Расширение режима : CM (complete main)
    Параметр Endianness формата : Big
    Идентификатор кодека : A_AC3
    Продолжительность : 21 м. 45 с.
    Вид битрейта : Постоянный
    Битрейт : 384 Кбит/сек
    Каналы : 6 каналов
    Расположение каналов : Front: L C R, Side: L R, LFE
    Частота : 48, 0 КГц
    Частота кадров : 31, 250 кадров/сек (1536 spf)
    Метод сжатия : С потерями
    Размер потока : 59, 8 Мбайт (7%)
    Язык : English
    Default : Нет
    Forced : Нет
    Текст #1
    Идентификатор : 4
    Формат : UTF-8
    Идентификатор кодека : S_TEXT/UTF8
    Идентификатор кодека/Информация : UTF-8 Plain Text
    Продолжительность : 21 м. 27 с.
    Битрейт : 169 бит/сек
    Count of elements : 473
    Размер потока : 26, 6 Кбайт (0%)
    Язык : Russian
    Default : Нет
    Forced : Нет
    Текст #2
    Идентификатор : 5
    Формат : UTF-8
    Идентификатор кодека : S_TEXT/UTF8
    Идентификатор кодека/Информация : UTF-8 Plain Text
    Продолжительность : 21 м. 13 с.
    Битрейт : 100 бит/сек
    Count of elements : 478
    Размер потока : 15, 7 Кбайт (0%)
    Язык : English
    Default : Нет
    Forced : Нет


    Скриншоты для ознакомления




    Онлайн видео Теория Большого Взрыва



    Теория Большого Взрыва/The Big Bang Theory (2016) WEB-DL [H.264/1080p-LQ] (сезон 10, серии 1 из 24) Кураж-Бамбей (обновляемая)
    загрузка...
    Рейтинг →
     (голосов: 1, оценка 4/5, голосовать можно 1 раз )

    Другие торренты по теме:

  • Теория Большого Взрыва / The Big Bang Theory (2014) HDTVRip, [H.264 / 720p-LQ], (Сезон 8, Серии 1-2 из 24) [Прыг-Скок] (обновляемая)
  • Теория Большого Взрыва / The Big Bang Theory (2014) HDTVRip [H.264 / 720p-LQ] (Сезон 8, серии 1-2 из 24) [En En, Ru Sub] (обновляемая)
  • Теория большого взрыва / The Big Bang Theory (2014) WEB-DL [H.264 / 1080p-LQ] (сезон 8, серии 1-2 из 24) Кураж-Бамбей (обновляемая)
  • Теория Большого Взрыва / The Big Bang Theory (2014) WEB-DL [H.264 / 1080p-LQ] (Сезон 8, Серия 1-2 из 24) [Кураж-Бамбей] (Обновляемая)
  • Теория Большого Взрыва / The Big Bang Theory (2014) WEB-DL [H.264 / 720p-LQ] (Сезон 8, серии 1-3 из 24) (Кураж-Бамбей) (обновляемая) скачать через торрент бесплатно
  • Теория большого взрыва / The Big Bang Theory (2014) WEB-DL [H.264 / 720p-LQ] [Сезон 8, Серии 1-7 из 24] (DekinStudio) (обновляемая) скачать через торрент бесплатно
  • Теория большого взрыва / The Big Bang Theory (2013) BDRemux [1080p] (сезон 7, серии 1-24 из 24) [Кураж-Бамбей]
  • Теория большого взрыва / The Big Bang Theory (2010) BDRemux [1080p] (сезон 3, серии 1-23 из 23) (Кураж-Бамбей, СТС) скачать через торрент бесплатно


    • Комментарии (0):

      Информация

      Информация

        Посетители, находящиеся в группе Гости, не могут оставлять комментарии в данной новости.

        ↓ Меню




        ↓ Опрос

        Вы добавили сайт в закладки?
        Да
        Нет


        Top 10 за месяц (Фильмы)