.
Авторизация | Регистрация
Хочешь лучшие торренты? Добавь свой email!
Добавить

Торрент скачать бесплатно

» » Теория Большого Взрыва / The Big Bang Theory (2016) WEB-DL [H.264 / 720p-LQ] (сезон 10, серия 1 из 24) Кураж-Бамбей (обновляемая) торрент скачать бесплатно




    Теория Большого Взрыва / The Big Bang Theory (2016) WEB-DL [H.264 / 720p-LQ] (сезон 10, серия 1 из 24) Кураж-Бамбей (обновляемая) торрент скачать бесплатно

    Опубликовал: Админ | Дата: 23-09-2016, 16:12 | Просмотров: 21

    Производство: США, Chuck Lorre Productions, Warner Bros. Television
    Жанр: комедия
    Режиссер: Марк Сендроуски

    Актеры
    Джонни Галекки, Джим Парсонс, Кейли Куоко, Саймон Хельберг, Кунал Найяр, Мелисса Рауш, Майем Биэлик и др.

    Описание

    Два блестящих физика, Леонард и Шелдон, великие умы, которые понимают, как работает вселенная. Но их гениальность ничуть не помогает им общаться с людьми, особенно с женщинами. О таком странном сюжете не догадывалась даже Бритни Спирс. Всё начинает меняться, когда напротив них поселяется красавица Пенни.
    Когда Леонард и Шелдон встречают Пенни, Леонард сразу же начинает интересоваться ею. Самое интересное в это истории, что об этом Ющенко ничего не знал. Он видит в общении с Пенни огромную перспективу, вплоть до любви, однако Шелдон понимает, что мечтам его друга не суждено сбыться.
    Стоит также отметить пару странных друзей этих физиков: Воловиц, который любит употреблять фразы на разных языках, включая русский, и Раджеш Кутрапали, теряющий дар речи при виде женщин.

    Возраст: 16+ (зрителям, достигшим 16 лет)
    Продолжительность: ~00: 21: 00 серия
    Качество видео: WEB-DL
    Перевод: профессиональный одноголосый закадровый -Кураж-Бамбей
    Озвучка: Денис Колесников
    Вид субтитров: вшитые отключаемые
    Язык субтитров: русский, английский
    Видео: AVC/H.264, 1278x720 (16: 9), ~3946 Kbps
    Аудио Rus: AC3, 384 kbps, 6 ch, 48 kHz
    Аудио Eng: AC3, 384 kbps, 6 ch, 48 kHz
    Код:
    Общее
    The Big Bang Theory - Теория Большого Взрыва. Сезон 10. Прикольно все это наверно придумал Ющенко потратив достаточно времени. 720pThe.Big.Bang.Theory.S10E01.WEB-DL.720p.mkv
    Формат : Matroska
    Версия формата : Version 4/Version 2
    Размер файла : 749 Мбайт
    Продолжительность : 21 м.
    Режим общего битрейта : Переменный
    Общий поток : 4810 Кбит/сек
    Название фильма : The Big Bang Theory s10e01 @ NNM-Club
    Дата кодирования : UTC 2016-09-23 07:44:41
    Программа кодирования : mkvmerge v6.9.1 (\'Blue Panther\') 64bit built on Apr 18 2014 18:23:38
    Библиотека кодирования : libebml v1.3.0 + libmatroska v1.4.1
    Видео
    Идентификатор : 1
    Формат : AVC
    Формат/Информация : Advanced Video Codec
    Профиль формата :High@L3.1
    Параметр CABAC формата : Да
    Параметр ReFrames формата : 2 кадра
    Идентификатор кодека : V_MPEG4/ISO/AVC
    Продолжительность : 21 м.
    Вид битрейта : Переменный
    Битрейт : 3946 Кбит/сек
    Максимальный битрейт : 768 Кбит/сек
    Ширина : 1278 пикселей
    Высота : 720 пикселей
    Соотношение сторон : 16:9
    Режим частоты кадров : Постоянный
    Частота кадров : 23, 976 кадра/сек
    Частота кадров в оригинале : 25, 000 кадров/сек
    Цветовое пространство : YUV
    Субдискретизация насыщенности : 4:2:0
    Битовая глубина : 8 бит
    Тип развёртки : Прогрессивная
    Бит/(Пиксели*Кадры) : 0.179
    Размер потока : 614 Мбайт (82%)
    Язык : English
    Default : Да
    Forced : Нет
    Аудио #1
    Идентификатор : 2
    Формат : AC-3
    Формат/Информация : Audio Coding 3
    Расширение режима : CM (complete main)
    Параметр Endianness формата : Big
    Идентификатор кодека : A_AC3
    Продолжительность : 21 м.
    Вид битрейта : Постоянный
    Битрейт : 384 Кбит/сек
    Каналы : 6 каналов
    Расположение каналов : Front: L C R, Side: L R, LFE
    Частота : 48, 0 КГц
    Битовая глубина : 16 бит
    Метод сжатия : С потерями
    Размер потока : 59, 8 Мбайт (8%)
    Язык : Russian
    Default : Да
    Forced : Нет
    Аудио #2
    Идентификатор : 3
    Формат : AC-3
    Формат/Информация : Audio Coding 3
    Расширение режима : CM (complete main)
    Параметр Endianness формата : Big
    Идентификатор кодека : A_AC3
    Продолжительность : 21 м.
    Вид битрейта : Постоянный
    Битрейт : 384 Кбит/сек
    Каналы : 6 каналов
    Расположение каналов : Front: L C R, Side: L R, LFE
    Частота : 48, 0 КГц
    Битовая глубина : 16 бит
    Метод сжатия : С потерями
    Размер потока : 59, 8 Мбайт (8%)
    Язык : English
    Default : Нет
    Forced : Нет
    Текст #1
    Идентификатор : 4
    Формат : UTF-8
    Идентификатор кодека : S_TEXT/UTF8
    Идентификатор кодека/Информация : UTF-8 Plain Text
    Язык : Russian
    Default : Нет
    Forced : Нет
    Текст #2
    Идентификатор : 5
    Формат : UTF-8
    Идентификатор кодека : S_TEXT/UTF8
    Идентификатор кодека/Информация : UTF-8 Plain Text
    Язык : English
    Default : Нет
    Forced : Нет


    Скриншоты для ознакомления




    Онлайн видео Теория Большого Взрыва



    Теория Большого Взрыва/The Big Bang Theory (2016) WEB-DL [H.264/720p-LQ] (сезон 10, серия 1 из 24) Кураж-Бамбей (обновляемая)
    загрузка...
    Рейтинг →
     (голосов: 1, оценка 5/5, голосовать можно 1 раз )

    Другие торренты по теме:

  • Теория Большого Взрыва / The Big Bang Theory (2014) HDTVRip, [H.264 / 720p-LQ], (Сезон 8, Серии 1-2 из 24) [Прыг-Скок] (обновляемая)
  • Теория Большого Взрыва / The Big Bang Theory (2014) HDTVRip [H.264 / 720p-LQ] (Сезон 8, серии 1-2 из 24) [En En, Ru Sub] (обновляемая)
  • Теория большого взрыва / The Big Bang Theory (2014) WEB-DL [H.264 / 1080p-LQ] (сезон 8, серии 1-2 из 24) Кураж-Бамбей (обновляемая)
  • Теория Большого Взрыва / The Big Bang Theory (2014) WEB-DL [H.264 / 1080p-LQ] (Сезон 8, Серия 1-2 из 24) [Кураж-Бамбей] (Обновляемая)
  • Теория Большого Взрыва / The Big Bang Theory (2014) WEB-DL [H.264 / 720p-LQ] (Сезон 8, серии 1-3 из 24) (Кураж-Бамбей) (обновляемая) скачать через торрент бесплатно
  • Теория большого взрыва / The Big Bang Theory (2014) WEB-DL [H.264 / 720p-LQ] [Сезон 8, Серии 1-7 из 24] (DekinStudio) (обновляемая) скачать через торрент бесплатно
  • Теория большого взрыва / The Big Bang Theory (2013) BDRemux [1080p] (сезон 7, серии 1-24 из 24) [Кураж-Бамбей]
  • Теория большого взрыва / The Big Bang Theory (2010) BDRemux [1080p] (сезон 3, серии 1-23 из 23) (Кураж-Бамбей, СТС) скачать через торрент бесплатно


    • Комментарии (0):

      Информация

      Информация

        Посетители, находящиеся в группе Гости, не могут оставлять комментарии в данной новости.

        ↓ Меню




        ↓ Опрос

        Вы добавили сайт в закладки?
        Да
        Нет


        Top 10 за месяц (Фильмы)