.
Авторизация | Регистрация
Хочешь лучшие торренты? Добавь свой email!
Добавить

Торрент скачать бесплатно

» » Медсестра (2016) HDTVRip (сезон 1, серии 1-12 из 12) торрент скачать бесплатно




    Медсестра (2016) HDTVRip (сезон 1, серии 1-12 из 12) торрент скачать бесплатно

    Опубликовал: Админ | Дата: 23-09-2016, 16:12 | Просмотров: 24

    Производство: Россия/Кинокомпания Про-синема
    Жанр: драма
    Режиссер: Михаил Журавкин

    Актеры
    Виктория Толстоганова, Олег Фомин, Елена Полякова, Денис Бургазлиев, Михаил Трухин, Аглая Шиловская, Александр Пашков, Виктория Лукина, Елизавета Кононова, Елена Санаева и др.

    Описание

    Старшей медсестре городской больницы Анне Виталс, муж которой пропал без вести пять лет назад, приходится одной воспитывать взрослеющую дочь и ухаживать за пожилой матерью. Молодая женщина совсем не думает о себе и живет только работой. Она успешно руководит медицинским персоналом и не уступает в профессиональных навыках ведущим специалистам отделения. Ежедневно по роду своей деятельности Аня сталкивается с трагедией и болью людей, но не теряет чувства сострадания и старается всячески помочь попавшим в беду. Ее жизнь начинает меняться с приходом в больницу нового заведующего кардиологическим отделением Игоря Борисов...

    Возраст: 12+ (зрителям, достигшим 12 лет)
    Дата российской премьеры: 12 сентября 2016
    Продолжительность: ~ 00: 50: 00 серия
    Качество видео: HDTVRip
    Видео: Xvid, 720x400 (16: 9), ~1781 Kbps
    Аудио: AC3, 2 ch, 192 Kbps, CBR
    Код:

    Общее
    Полное имя : D:Мои фильмыMedsestra_1-12iz12-2016_XviD_HDTVRipMedsestra_01_HDTVRip.avi
    Формат : AVI
    Формат/Информация : Audio Video Interleave
    Размер файла : 746 Мбайт
    Продолжительность : 52 м. 35 с.
    Общий поток : 1982 Кбит/сек
    Программа кодирования : VirtualDubMod 1.5.10.3 (build 2550/release)
    Библиотека кодирования : VirtualDub build 35491/release
    Видео
    Идентификатор : 0
    Формат : MPEG-4 Visual
    Профиль формата : Advanced Simple@L5
    Параметр BVOP формата : 2
    Параметр QPel формата : Нет
    Параметр GMC формата : Без точки перехода
    Параметр матрицы формата : Default (H.263)
    Идентификатор кодека : XVID
    Идентификатор кодека/Подсказка : XviD
    Продолжительность : 52 м. 35 с.
    Битрейт : 1781 Кбит/сек
    Ширина : 720 пикселей
    Высота : 304 пикселя
    Соотношение сторон : 2, 35:1
    Частота кадров : 25, 000 кадров/сек
    Цветовое пространство : YUV
    Субдискретизация насыщенности : 4:2:0
    Битовая глубина : 8 бит
    Тип развёртки : Прогрессивная
    Метод сжатия : С потерями
    Бит/(Пиксели*Кадры) : 0.325
    Размер потока : 670 Мбайт (90%)
    Библиотека кодирования : XviD 67
    Аудио
    Идентификатор : 1
    Формат : AC-3
    Формат/Информация : Audio Coding 3
    Расширение режима : CM (complete main)
    Параметр Endianness формата : Big
    Идентификатор кодека : 2000
    Продолжительность : 52 м. 34 с.
    Вид битрейта : Постоянный
    Битрейт : 192 Кбит/сек
    Каналы : 2 канала
    Расположение каналов : Front: L R
    Частота : 48, 0 КГц
    Частота кадров : 31, 250 кадров/сек (1536 spf)
    Метод сжатия : С потерями
    Размер потока : 72, 2 Мбайт (10%)
    Выравнивание : Соединение по промежуткам
    Продолжительность промежутка : 40 мс. (1, 00 видеокадр)
    Время предзагрузки промежутка : 512 мс.


    Скриншоты для ознакомления




    Онлайн видео Медсестра (2016) HDTVRip (сезон любимого сериала 1, серии 1



    Медсестра (2016) HDTVRip (сезон 1, серии 1-12 из 12)
    загрузка...
    Рейтинг →
     (голосов: 1, оценка 3/5, голосовать можно 1 раз )

    Другие торренты по теме:

  • Чувственная медсестра / Linfermiera (1975) DVDRip [H.264] [VO] скачать через торрент бесплатно
  • Nurse Witch Komugi-chan R | Медсестра-волшебница Комуги-тян R [2015, TV, 1 из 12 эп.] WEB-DL 720p raw
  • Медсестра на военном обходе / La soldatessa alla visita militare (1977) DVDRip [H.264] [VO]
  • Владислав Романов | Улыбка судьбы. Медсестра (2013) [MP3]
  • Nurse Witch Komugi-chan R / Медсестра-волшебница Комуги-тян Эр [2016, TV, 12 из 12] WEBRip 720p raw
  • Сату Гажярдо | Медсестра спешит на помощь. Истории для улучшения здоровья и повышения настроения (2017) [FB2, EPUB]


    • Комментарии (0):

      Информация

      Информация

        Посетители, находящиеся в группе Гости, не могут оставлять комментарии в данной новости.

        ↓ Меню




        ↓ Опрос

        Вы добавили сайт в закладки?
        Да
        Нет


        Top 10 за месяц (Фильмы)