.
Авторизация | Регистрация
Хочешь лучшие торренты? Добавь свой email!
Добавить

Торрент скачать бесплатно

» » Внутреннее расследование (2014) HDTVRip (сезон 1, серии 1-16 из 16) торрент скачать бесплатно




    Внутреннее расследование (2014) HDTVRip (сезон 1, серии 1-16 из 16) торрент скачать бесплатно

    Опубликовал: Админ | Дата: 23-09-2016, 16:12 | Просмотров: 28

    Производство: Россия/ООО Прогресс-Студия по заказу ООО Форвард-Фильм
    Жанр: детектив, боевик, криминал
    Режиссер: Вадим Саетгалиев

    Актеры
    Дмитрий Певцов, Сергей Власов (S.A.V.), Сергей Мардарь, Владимир Богданов, Алексей Лысенко, Андрей Родимов, Борис Чистяков, Филипп Чевычелов, Виталий Жигалин, Александр Матвеев и др.

    Описание

    Современная полиция. Кто в ней – честный мент? Кто - оборотень?Зайнулина обвиняют в убийстве своего подчиненного - агента под прикрытием. Накануне этого убийства Зайнуллин узнает от своего агента, где скрывается криминальный авторитет Низамов. Этот бандит уже давно разыскивается за убийства, и Зайнуллин бросается по следу. Но почти сразу его задерживают сотрудники управления собственной безопасности (УСБ). Зачем начальнику убойного отдела понадобилось убивать своего коллегу, так ли уж прав глава отдела спецопераций Латунин, который преследует Зайнулина? Разобраться в этом призывают вышедшего на заслуженный отдых полковника Щуку.

    Возраст: 16+ (зрителям, достигшим 16 лет)
    Продолжительность: ~ 00: 47: 00 серия
    Качество видео: HDTVRip
    Видео: Xvid, 720x400 (16: 9), ~1 490 Kbps
    Аудио: AC3, 2 ch, 192 Kbps, CBR
    Код:

    Общее
    Полное имя : D:Мои фильмыVnutrennee_rassledovanie_1-16iz16_2014_XviD_HDTVRip1.Революция.(1 сер.).avi
    Формат : AVI
    Формат/Информация : Audio Video Interleave
    Размер файла : 555 Мбайт
    Продолжительность : 45 м. 53 с.
    Общий поток : 1692 Кбит/сек
    Программа кодирования : VirtualDubMod 1.5.10.3 www.virtualdub-fr.org|| (build 2550/release)
    Библиотека кодирования : VirtualDub build 35491/release
    Видео
    Идентификатор : 0
    Формат : MPEG-4 Visual
    Профиль формата : Advanced Simple@L5
    Параметр BVOP формата : 2
    Параметр QPel формата : Нет
    Параметр GMC формата : Без точки перехода
    Параметр матрицы формата : Default (H.263)
    Идентификатор кодека : XVID
    Идентификатор кодека/Подсказка : XviD
    Продолжительность : 45 м. 53 с.
    Битрейт : 1490 Кбит/сек
    Ширина : 720 пикселей
    Высота : 400 пикселей
    Соотношение сторон : 16:9
    Частота кадров : 25, 000 кадров/сек
    Цветовое пространство : YUV
    Субдискретизация насыщенности : 4:2:0
    Битовая глубина : 8 бит
    Тип развёртки : Прогрессивная
    Метод сжатия : С потерями
    Бит/(Пиксели*Кадры) : 0.207
    Размер потока : 489 Мбайт (88%)
    Библиотека кодирования : XviD 67
    Аудио
    Идентификатор : 1
    Формат : AC-3
    Формат/Информация : Audio Coding 3
    Расширение режима : CM (complete main)
    Параметр Endianness формата : Big
    Идентификатор кодека : 2000
    Продолжительность : 45 м. 53 с.
    Вид битрейта : Постоянный
    Битрейт : 192 Кбит/сек
    Каналы : 2 канала
    Расположение каналов : Front: L R
    Частота : 48, 0 КГц
    Частота кадров : 31, 250 кадров/сек (1536 spf)
    Метод сжатия : С потерями
    Размер потока : 63, 0 Мбайт (11%)
    Выравнивание : Соединение по промежуткам
    Продолжительность промежутка : 40 мс. Время пошло, сказал кто то из толпы, к чему не понятно. (1, 00 видеокадр)
    Время предзагрузки промежутка : 512 мс.


    Скриншоты для ознакомления




    Онлайн видео Внутреннее расследование (2014) HDTVRip (сезон любимого сериала 1, серии 1



    Внутреннее расследование (2014) HDTVRip (сезон 1, серии 1-16 из 16)
    загрузка...
    Рейтинг →
     (голосов: 1, оценка 4/5, голосовать можно 1 раз )

    Другие торренты по теме:

  • Внутреннее расследование (2014) SATRip [Серия 1-2 из 16] (Обновляемая)
  • Внутреннее расследование (2014) SATRip (серии 1-2 из 16) (обновляемая) скачать через торрент бесплатно
  • Внутреннее расследование (2014) SATRip [H.264] (серии 1-4 из 16) (обновляемая)
  • Внутреннее расследование (2014) HDTV [H.264 / 1080i-LQ] (серии 1-16 из 16)


    • Комментарии (0):

      Информация

      Информация

        Посетители, находящиеся в группе Гости, не могут оставлять комментарии в данной новости.

        ↓ Меню




        ↓ Опрос

        Вы добавили сайт в закладки?
        Да
        Нет


        Top 10 за месяц (Фильмы)