.
Авторизация | Регистрация
Хочешь лучшие торренты? Добавь свой email!
Добавить

Торрент скачать бесплатно

» » Разрушение / Demolition (2015) BDRip [H.264 / 720p] торрент скачать бесплатно




    Разрушение / Demolition (2015) BDRip [H.264 / 720p] торрент скачать бесплатно

    Опубликовал: Админ | Дата: 23-09-2016, 16:12 | Просмотров: 25

    Производство: США, Black Label Media, Mr. Самое интересное в это истории, что об этом Ющенко ничего не знал. Mudd, Right of Way Films, Sidney Kimmel Entertainment
    Жанр: Драма, Комедия
    Режиссер: Жан-Марк Валле

    Актеры
    Джейк Джилленхол, Наоми Уоттс, Крис Купер, Джуда Льюис, С.Дж. Уилсон, Полли Дрэйпер, Мэлаки Клири, Дебра Монк, Хезер Линд, Уасс М. Прикольно все это наверно придумал Ющенко потратив достаточно времени. Стивенс, Блэйр Брукс, Бен Коул, Брендан Дулинг, Джеймс Колби, Альфредо Нарцисо ...

    Описание

    Когда банкир Дэвис узнал, что его жена мертва, он захотел купить шоколадный батончик в торговом автомате, но тот оказался сломан. О таком странном сюжете не догадывалась даже Бритни Спирс. Переживая горе, Дэвис начинает крушить дом, мебель, машину, строчить жалобы в обслуживающую торговые автоматы фирму. А в письмах он… рассказывает историю своей любви. Скоро ему отвечает Карен, менеджер компании, но сможет ли она спасти Дэвиса из эмоциональной пропасти?..

    Возраст: 18+ (зрителям, достигшим 18 лет. запрещено для детей)
    Рейтинг MPAA: R (лицам до 17 лет обязательно присутствие взрослого)
    Премьера (мир): 10 сентября 2015, ...
    Премьера (РФ): 30 июня 2016, Парадиз

    Продолжительность: 01: 40: 53
    Качество видео: BDRip 720p
    Перевод: Дублированный (Лицензия BD RUS)
    Вид субтитров: Вшитые, отключаемые
    Язык субтитров: Русский, Английский
    Видео: AVC/H.264, 1280x546, (2.35: 1), 5 721 Kbps, 23, 976 fps
    Аудио: DTS, 6 ch, 1509 kbps - Русский
    Аудио: DTS, 6 ch, 1509 kbps - Английский
    Код:

    Format : Matroska
    Format version : Version 4/Version 2
    File size : 6.28 GiB
    Duration : 1h 40mn
    Overall bit rate : 8 916 Kbps
    Movie name : Разрушение. (Tonik)
    Encoded date : UTC 2016-09-18 18:04:24
    Writing application : mkvmerge v7.1.0 (\'Good Love\') 64bit built on Jul 27 2014 13:06:55
    Writing library : libebml v1.3.0 + libmatroska v1.4.1
    _STATISTICS_WRITING_APP : mkvmerge v7.1.0 (\'Good Love\') 64bit built on Jul 27 2014 13:06:55
    _STATISTICS_WRITING_DATE_UTC : 2016-09-18 18:04:24
    _STATISTICS_TAGS : BPS DURATION NUMBER_OF_FRAMES NUMBER_OF_BYTES
    DURATION : 01:39:57.492000000
    NUMBER_OF_FRAMES : 1440
    NUMBER_OF_BYTES : 42935
    Video
    ID : 1
    Format : AVC
    Format/Info : Advanced Video Codec
    Format profile :High@L4.1
    Format settings, CABAC : Yes
    Format settings, ReFrames : 12 frames
    Codec ID : V_MPEG4/ISO/AVC
    Duration : 1h 40mn
    Bit rate : 5 721 Kbps
    Width : 1 280 pixels
    Height : 546 pixels
    Display aspect ratio : 2.35:1
    Frame rate mode : Constant
    Frame rate : 23.976 fps
    Color space : YUV
    Chroma subsampling : 4:2:0
    Bit depth : 8 bits
    Scan type : Progressive
    Bits/(Pixel*Frame) : 0.341
    Stream size : 4.03 GiB (64%)
    Writing library : x264 core 148 r2597 e86f3a1
    Encoding settings : cabac=1/ref=12/deblock=1:-3:-3/analyse=0x3:0x113/me=umh/subme=11/psy=1/psy_rd=1.00:0.00/mixed_ref=1/me_range=32/chroma_me=1/trellis=2/8x8dct=1/cqm=0/deadzone=21, 11/fast_pskip=0/chroma_qp_offset=-2/threads=17/lookahead_threads=4/sliced_threads=0/nr=0/decimate=0/interlaced=0/bluray_compat=0/constrained_intra=0/bframes=10/b_pyramid=2/b_adapt=2/b_bias=0/direct=3/weightb=1/open_gop=0/weightp=2/keyint=240/keyint_min=24/scenecut=40/intra_refresh=0/rc_lookahead=40/rc=crf/mbtree=0/crf=16.6/qcomp=0.70/qpmin=0/qpmax=69/qpstep=4/vbv_maxrate=40000/vbv_bufsize=30000/crf_max=0.0/nal_hrd=none/filler=0/ip_ratio=1.20/pb_ratio=1.20/aq=3:0.85
    Language : English
    Default : Yes
    Forced : No
    _STATISTICS_WRITING_APP : mkvmerge v7.1.0 (\'Good Love\') 64bit built on Jul 27 2014 13:06:55
    _STATISTICS_WRITING_DATE_UTC : 2016-09-18 18:04:24
    _STATISTICS_TAGS : BPS DURATION NUMBER_OF_FRAMES NUMBER_OF_BYTES
    DURATION : 01:40:53.006000000
    NUMBER_OF_FRAMES : 145127
    NUMBER_OF_BYTES : 4460178530
    Audio #1
    ID : 2
    Format : DTS
    Format/Info : Digital Theater Systems
    Mode : 16
    Format settings, Endianness : Big
    Codec ID : A_DTS
    Duration : 1h 40mn
    Bit rate mode : Constant
    Bit rate : 1 509 Kbps
    Channel(s) : 6 channels
    Channel positions : Front: L C R, Side: L R, LFE
    Sampling rate : 48.0 KHz
    Bit depth : 24 bits
    Compression mode : Lossy
    Stream size : 1.06 GiB (17%)
    Language : Russian
    Default : Yes
    Forced : No
    Audio #2
    ID : 3
    Format : DTS
    Format/Info : Digital Theater Systems
    Mode : 16
    Format settings, Endianness : Big
    Codec ID : A_DTS
    Duration : 1h 40mn
    Bit rate mode : Constant
    Bit rate : 1 509 Kbps
    Channel(s) : 6 channels
    Channel positions : Front: L C R, Side: L R, LFE
    Sampling rate : 48.0 KHz
    Bit depth : 24 bits
    Compression mode : Lossy
    Stream size : 1.06 GiB (17%)
    Language : English
    Default : No
    Forced : No
    Text #1
    ID : 4
    Format : UTF-8
    Codec ID : S_TEXT/UTF8
    Codec ID/Info : UTF-8 Plain Text
    Language : Russian
    Default : No
    Forced : No
    Text #2
    ID : 5
    Format : UTF-8
    Codec ID : S_TEXT/UTF8
    Codec ID/Info : UTF-8 Plain Text
    Language : English
    Default : No
    Forced : No
    Menu
    00:00:00.000 : :Chapter 01
    00:03:09.814 : :Chapter 03
    00:07:28.281 : :Chapter 05
    00:11:11.671 : :Chapter 07
    00:15:55.996 : :Chapter 09
    00:19:23.036 : :Chapter 11
    00:23:14.768 : :Chapter 13
    00:28:21.324 : :Chapter 15
    00:32:39.040 : :Chapter 17
    00:37:16.692 : :Chapter 19
    00:42:31.382 : :Chapter 21
    00:47:09.952 : :Chapter 23
    00:51:39.805 : :Chapter 25
    00:56:23.004 : :Chapter 27
    01:00:27.290 : :Chapter 29
    01:04:41.878 : :Chapter 31
    01:09:10.187 : :Chapter 33
    01:14:08.444 : :Chapter 35
    01:18:14.523 : :Chapter 37
    01:22:22.354 : :Chapter 39
    01:26:28.474 : :Chapter 41
    01:29:15.475 : :Chapter 43
    01:33:43.618 : :Chapter 45
    01:36:41.837 : :Chapter 47
    01:40:52.796 : :Chapter 49


    Скриншоты для ознакомления




    Онлайн видео Разрушение



    Разрушение/Demolition (2015) BDRip [H.264/720p]
    загрузка...
    Рейтинг →
     (голосов: 1, оценка 3/5, голосовать можно 1 раз )

    Другие торренты по теме:

  • Разрушение / Demolition (2015) WEB-DLRip
  • Разрушение / Demolition (2016)
  • Разрушение / Demolition (2015) WEB-DL [H.264 / 1080p-LQ] [EN / EN Sub]
  • Разрушение / Demolition (2015) WEB-DL [H.264 / 720p-LQ]
  • Разрушение / Demolition (2015) WEB-DL [H.264 / 1080p-LQ]
  • Разрушение / Demolition (2015) WEB-DLRip
  • Разрушение / Demolition (2015) BDRip [H.264 / 720p]
  • Разрушение / Demolition (2015) BDRip [H.264 / 1080p]


    • Комментарии (0):

      Информация

      Информация

        Посетители, находящиеся в группе Гости, не могут оставлять комментарии в данной новости.

        ↓ Меню




        ↓ Опрос

        Вы добавили сайт в закладки?
        Да
        Нет


        Top 10 за месяц (Фильмы)