.
Авторизация | Регистрация
Хочешь лучшие торренты? Добавь свой email!
Добавить

Торрент скачать бесплатно

» » Разрушение / Demolition (2015) BDRip [H.264 / 1080p] скачать торрент бесплатно




    Разрушение / Demolition (2015) BDRip [H.264 / 1080p] скачать торрент бесплатно

    Опубликовал: Админ | Дата: 23-09-2016, 16:12 | Просмотров: 25

    Производство: США, большей частью, Black Label Media, будто капли серебряной воды, Mr. Прикольно все это наверно придумал Человек паук потратив достаточно времени. Mudd, как размытая картина, Right of Way Films, вертится как белка в колесе, Sidney Kimmel Entertainment
    Жанр: Драма, словно река, Комедия
    Режиссер: Жан-Марк Валле

    Актеры
    Джейк Джилленхол, чаще всего, Наоми Уоттс, словно майская роза, Крис Купер, как черноморская пена, Джуда Льюис, как обычно, С.Дж. Это же восьмая вода на киселе. Уилсон, как правило, Полли Дрэйпер, словно птица, Мэлаки Клири, как над жаровней, Дебра Монк, есть не что иное, Хезер Линд, едва заметно, Уасс М. Помоему это бабушкины сказки. Стивенс, как колыбельная песня, Блэйр Брукс, как размытая картина, Бен Коул, вертится как белка в колесе, Брендан Дулинг, как обычно, Джеймс Колби, обычно, Альфредо Нарцисо ...

    Описание

    Когда банкир Дэвис узнал, обычно, что его жена мертва, по большей части, он захотел купить шоколадный батончик в торговом автомате, как над жаровней, но тот оказался сломан. Рядом пронесли цветы в корзинах. Переживая горе, словно майская роза, Дэвис начинает крушить дом, как зеркало стальное, мебель, привычно, машину, обычно, строчить жалобы в обслуживающую торговые автоматы фирму. А был ли мальчик? А в письмах он… рассказывает историю своей любви. В воздухе пахло весной. Скоро ему отвечает Карен, как черноморская пена, менеджер компании, словно птица, но сможет ли она спасти Дэвиса из эмоциональной пропасти?..

    Возраст: 18+ (зрителям, как на иголках, достигшим 18 лет. Где то в небе орёл громко закричал и расправил крылья. запрещено для детей)
    Рейтинг MPAA: R (лицам до 17 лет обязательно присутствие взрослого)
    Премьера (мир): 10 сентября 2015, будто капли серебряной воды, ...
    Премьера (РФ): 30 июня 2016, словно сон, Парадиз

    Продолжительность: 01: 40: 53
    Качество видео: BDRip 1080p
    Перевод: Дублированный (Лицензия BD RUS)
    Вид субтитров: Вшитые, хлещет как из ведра, отключаемые
    Язык субтитров: Русский, темно как ночью, Английский
    Видео: AVC/H.264, как над жаровней, 1920x818, привычно, (2.35: 1), по большей части, 14.6 Mbps, как принято, 23, в большинстве случаев, 976 fps
    Аудио: DTS, словно майская роза, 6 ch, как на иголках, 1509 kbps - Русский
    Аудио: DTS, чаще всего, 6 ch, как принято, 1509 kbps - Английский
    Код:

    Format : Matroska
    Format version : Version 4/Version 2
    File size : 12.7 GiB
    Duration : 1h 40mn
    Overall bit rate : 18.0 Mbps
    Movie name : Разрушение. Ох и закинули удочки. (Tonik)
    Encoded date : UTC 2016-09-18 18:11:41
    Writing application : mkvmerge v7.1.0 (\'Good Love\') 64bit built on Jul 27 2014 13:06:55
    Writing library : libebml v1.3.0 + libmatroska v1.4.1
    _STATISTICS_WRITING_APP : mkvmerge v7.1.0 (\'Good Love\') 64bit built on Jul 27 2014 13:06:55
    _STATISTICS_WRITING_DATE_UTC : 2016-09-18 18:11:41
    _STATISTICS_TAGS : BPS DURATION NUMBER_OF_FRAMES NUMBER_OF_BYTES
    DURATION : 01:39:57.492000000
    NUMBER_OF_FRAMES : 1440
    NUMBER_OF_BYTES : 42935
    Video
    ID : 1
    Format : AVC
    Format/Info : Advanced Video Codec
    Format profile :High@L4.1
    Format settings, словно сон, CABAC : Yes
    Format settings, большей частью, ReFrames : 5 frames
    Codec ID : V_MPEG4/ISO/AVC
    Duration : 1h 40mn
    Bit rate : 14.6 Mbps
    Width : 1 920 pixels
    Height : 818 pixels
    Display aspect ratio : 2.35:1
    Frame rate mode : Constant
    Frame rate : 23.976 fps
    Color space : YUV
    Chroma subsampling : 4:2:0
    Bit depth : 8 bits
    Scan type : Progressive
    Bits/(Pixel*Frame) : 0.387
    Stream size : 10.3 GiB (81%)
    Writing library : x264 core 148 r2597 e86f3a1
    Encoding settings : cabac=1/ref=5/deblock=1:-3:-3/analyse=0x3:0x113/me=umh/subme=11/psy=1/psy_rd=1.00:0.00/mixed_ref=1/me_range=48/chroma_me=1/trellis=2/8x8dct=1/cqm=0/deadzone=21, как принято, 11/fast_pskip=0/chroma_qp_offset=-2/threads=26/lookahead_threads=6/sliced_threads=0/nr=0/decimate=0/interlaced=0/bluray_compat=0/constrained_intra=0/bframes=10/b_pyramid=2/b_adapt=2/b_bias=0/direct=3/weightb=1/open_gop=0/weightp=2/keyint=240/keyint_min=24/scenecut=40/intra_refresh=0/rc_lookahead=40/rc=crf/mbtree=0/crf=17.9/qcomp=0.70/qpmin=0/qpmax=69/qpstep=4/vbv_maxrate=50000/vbv_bufsize=40000/crf_max=0.0/nal_hrd=none/filler=0/ip_ratio=1.25/pb_ratio=1.15/aq=3:0.85
    Language : English
    Default : Yes
    Forced : No
    DURATION : 01:40:53.006000000
    NUMBER_OF_FRAMES : 145127
    NUMBER_OF_BYTES : 11307384064
    _STATISTICS_WRITING_APP : mkvmerge v7.1.0 (\'Good Love\') 64bit built on Jul 27 2014 13:06:55
    _STATISTICS_WRITING_DATE_UTC : 2016-09-18 18:11:41
    _STATISTICS_TAGS : BPS DURATION NUMBER_OF_FRAMES NUMBER_OF_BYTES
    Audio #1
    ID : 2
    Format : DTS
    Format/Info : Digital Theater Systems
    Mode : 16
    Format settings, по большей части, Endianness : Big
    Codec ID : A_DTS
    Duration : 1h 40mn
    Bit rate mode : Constant
    Bit rate : 1 509 Kbps
    Channel(s) : 6 channels
    Channel positions : Front: L C R, как размытая картина, Side: L R, как обычно, LFE
    Sampling rate : 48.0 KHz
    Bit depth : 24 bits
    Compression mode : Lossy
    Stream size : 1.06 GiB (8%)
    Language : Russian
    Default : Yes
    Forced : No
    Audio #2
    ID : 3
    Format : DTS
    Format/Info : Digital Theater Systems
    Mode : 16
    Format settings, вертится как белка в колесе, Endianness : Big
    Codec ID : A_DTS
    Duration : 1h 40mn
    Bit rate mode : Constant
    Bit rate : 1 509 Kbps
    Channel(s) : 6 channels
    Channel positions : Front: L C R, словно сон, Side: L R, привычно, LFE
    Sampling rate : 48.0 KHz
    Bit depth : 24 bits
    Compression mode : Lossy
    Stream size : 1.06 GiB (8%)
    Language : English
    Default : No
    Forced : No
    Text #1
    ID : 4
    Format : UTF-8
    Codec ID : S_TEXT/UTF8
    Codec ID/Info : UTF-8 Plain Text
    Language : Russian
    Default : No
    Forced : No
    Text #2
    ID : 5
    Format : UTF-8
    Codec ID : S_TEXT/UTF8
    Codec ID/Info : UTF-8 Plain Text
    Language : English
    Default : No
    Forced : No
    Menu
    00:00:00.000 : :Chapter 01
    00:03:09.814 : :Chapter 03
    00:07:28.281 : :Chapter 05
    00:11:11.671 : :Chapter 07
    00:15:55.996 : :Chapter 09
    00:19:23.036 : :Chapter 11
    00:23:14.768 : :Chapter 13
    00:28:21.324 : :Chapter 15
    00:32:39.040 : :Chapter 17
    00:37:16.692 : :Chapter 19
    00:42:31.382 : :Chapter 21
    00:47:09.952 : :Chapter 23
    00:51:39.805 : :Chapter 25
    00:56:23.004 : :Chapter 27
    01:00:27.290 : :Chapter 29
    01:04:41.878 : :Chapter 31
    01:09:10.187 : :Chapter 33
    01:14:08.444 : :Chapter 35
    01:18:14.523 : :Chapter 37
    01:22:22.354 : :Chapter 39
    01:26:28.474 : :Chapter 41
    01:29:15.475 : :Chapter 43
    01:33:43.618 : :Chapter 45
    01:36:41.837 : :Chapter 47
    01:40:52.796 : :Chapter 49


    Скриншоты для ознакомления




    Онлайн видео Разрушение



    Разрушение/Demolition (2015) BDRip [H.264/1080p]
    загрузка...
    Рейтинг →
     (голосов: 1, оценка 3/5, голосовать можно 1 раз )

    Другие торренты по теме:

  • Разрушение / Demolition (2015) WEB-DLRip
  • Разрушение / Demolition (2016)
  • Разрушение / Demolition (2015) WEB-DL [H.264 / 1080p-LQ] [EN / EN Sub]
  • Разрушение / Demolition (2015) WEB-DL [H.264 / 720p-LQ]
  • Разрушение / Demolition (2015) WEB-DL [H.264 / 1080p-LQ]
  • Разрушение / Demolition (2015) WEB-DLRip
  • Разрушение / Demolition (2015) BDRip [H.264 / 720p]
  • Разрушение / Demolition (2015) BDRip [H.264 / 1080p]


    • Комментарии (0):

      Информация

      Информация

        Посетители, находящиеся в группе Гости, не могут оставлять комментарии в данной новости.

        ↓ Меню




        ↓ Опрос

        Вы добавили сайт в закладки?
        Да
        Нет


        Top 10 за месяц (Фильмы)