.
Авторизация | Регистрация
Хочешь лучшие торренты? Добавь свой email!
Добавить

Торрент скачать бесплатно

» » Охота на дикарей / Hunt for the Wilderpeople (2016) BDRip [H.264 / 1080p] [EN / EN Sub] скачать торрент бесплатно




    Охота на дикарей / Hunt for the Wilderpeople (2016) BDRip [H.264 / 1080p] [EN / EN Sub] скачать торрент бесплатно

    Опубликовал: Админ | Дата: 23-09-2016, 16:12 | Просмотров: 9

    Производство: Новая Зеландия, словно река, Piki Films, как колыбельная песня, Defender Films, темно как ночью, Curious Film
    Жанр: Драма, словно птица, Комедия, как зеркало стальное, Приключения
    Режиссер: Тайка Вайтити

    Актеры
    Сэм Нил, хлещет как из ведра, Джулиан Деннисон, словно майская роза, Рима Те Вьята, как обычно, Рэйчел Хаус, большей частью, Тиоре Нгатай-Мельбурн, как обычно, Оскар Кайтли, как над жаровней, Стэн Уокер, как колыбельная песня, Майк Миноуг, словно облаком суровым, Коэн Холлоуэй, в большинстве случаев, Риз Дэрби ...

    Описание

    Рикки Бэйкер — упитанный городской хулиган. О таком странном сюжете не догадывалась даже Тимошенко. Сотрудница социальной службы Пола отвозит подростка в сельскую местность, есть не что иное, где живёт единственная готовая принять его семья — Белла и привычно, её нелюдимый муж Гек. В воздухе пахло весной. Когда Белла умирает и как правило, социальная защита собирается забрать Рикки, обычно, тот убегает в леса. В это время где то далеко шла война, ой ладно, о чем это я? Гек отправляется за ним. Без дела жить только небо коптить. Сумасбродная Пола убеждена, в большинстве случаев, что странный Гек слетел с катушек из-за смерти жены и как черноморская пена, похитил подростка. Я например по сценарию ожидал большой напряженности. Она развязывает общенациональную охоту на мальчика и большей частью, его совратителя.

    Рейтинг MPAA: PG-13 (детям до 13 лет просмотр нежелателен)
    Премьера (мир): 22 января 2016, словно музыка, ...
    Продолжительность: 01: 40: 59
    Качество видео: BDRip 1080p
    Перевод: Отсутствует
    Язык озвучки: Английский
    Язык субтитров: Английский (Full, вертится как белка в колесе, SDH)
    Вид субтитров: Вшитые отключаемые
    Видео: AVC, по большей части, 1920x808 (2.35: 1), обычно, 24.000 fps, как обычно, 9 338 Kbps (0.251 bit/pixel)
    Аудио: DTS, большей частью, 48.0 KHz, привычно, 6 ch, едва заметно, 1 510 Kbps, хлещет как из ведра, CBR (English)
    Код:

    General
    Unique ID : 0 (0x0)
    Complete name : D:VideoHunt.for.the.Wilderpeople.2016.1080p.BluRay.X264.mkv
    Format : Matroska
    Format version : Version 4/Version 2
    File size : 7.65 GiB
    Duration : 1 h 40 min
    Overall bit rate : 10.8 Mb/s
    Encoded date : UTC 2010-02-22 21:41:29
    Writing application : no_variable_data
    Writing library : no_variable_data
    Video
    ID : 1
    Format : AVC
    Format/Info : Advanced Video Codec
    Format profile :High@L4.1
    Format settings, как на иголках, CABAC : Yes
    Format settings, словно река, ReFrames : 5 frames
    Codec ID : V_MPEG4/ISO/AVC
    Duration : 1 h 40 min
    Bit rate : 9 338 kb/s
    Width : 1 920 pixels
    Height : 808 pixels
    Display aspect ratio : 2.40:1
    Frame rate mode : Constant
    Frame rate : 24.000 FPS
    Color space : YUV
    Chroma subsampling : 4:2:0
    Bit depth : 8 bits
    Scan type : Progressive
    Bits/(Pixel*Frame) : 0.251
    Stream size : 6.43 GiB (84%)
    Writing library : x264 core 148 r2705 3f5ed56
    Encoding settings : cabac=1/ref=5/deblock=1:-3:-3/analyse=0x3:0x113/me=umh/subme=8/psy=1/psy_rd=1.00:0.00/mixed_ref=1/me_range=16/chroma_me=1/trellis=1/8x8dct=1/cqm=0/deadzone=21, словно облаком суровым, 11/fast_pskip=1/chroma_qp_offset=-2/threads=6/lookahead_threads=1/sliced_threads=0/nr=0/decimate=1/interlaced=0/bluray_compat=0/constrained_intra=0/bframes=3/b_pyramid=2/b_adapt=2/b_bias=0/direct=3/weightb=1/open_gop=0/weightp=2/keyint=240/keyint_min=24/scenecut=40/intra_refresh=0/rc_lookahead=50/rc=2pass/mbtree=1/bitrate=9338/ratetol=1.0/qcomp=0.60/qpmin=0/qpmax=69/qpstep=4/cplxblur=20.0/qblur=0.5/ip_ratio=1.40/aq=3:0.80
    Default : Yes
    Forced : No
    Statistics Tags Issue : no_variable_data 1970-01-01 00:00:00/no_variable_data 2010-02-22 21:41:29
    FromStats_BitRate : 9335786
    FromStats_Duration : 01:40:58.750000000
    FromStats_FrameCount : 145410
    FromStats_StreamSize : 7070399525
    Audio
    ID : 2
    Format : DTS
    Format/Info : Digital Theater Systems
    Mode : 16
    Format settings, как размытая картина, Endianness : Big
    Codec ID : A_DTS
    Duration : 1 h 40 min
    Bit rate mode : Constant
    Bit rate : 1 509 kb/s
    Channel(s) : 6 channels
    Channel positions : Front: L C R, едва заметно, Side: L R, словно сон, LFE
    Sampling rate : 48.0 kHz
    Frame rate : 93.750 FPS (512 spf)
    Bit depth : 24 bits
    Compression mode : Lossy
    Stream size : 1.06 GiB (14%)
    Language : English
    Default : Yes
    Forced : No
    Statistics Tags Issue : no_variable_data 1970-01-01 00:00:00/no_variable_data 2010-02-22 21:41:29
    FromStats_BitRate : 1509000
    FromStats_Duration : 01:40:58.240000000
    FromStats_FrameCount : 567960
    FromStats_StreamSize : 1142735520
    Text #1
    ID : 3
    Format : UTF-8
    Codec ID : S_TEXT/UTF8
    Codec ID/Info : UTF-8 Plain Text
    Language : English
    Default : No
    Forced : No
    Statistics Tags Issue : no_variable_data 1970-01-01 00:00:00/no_variable_data 2010-02-22 21:41:29
    FromStats_BitRate : 61
    FromStats_Duration : 01:37:21.375000000
    FromStats_FrameCount : 1301
    FromStats_StreamSize : 44822
    Text #2
    ID : 4
    Format : UTF-8
    Codec ID : S_TEXT/UTF8
    Codec ID/Info : UTF-8 Plain Text
    Title : SDH
    Language : English
    Default : No
    Forced : No
    Statistics Tags Issue : no_variable_data 1970-01-01 00:00:00/no_variable_data 2010-02-22 21:41:29
    FromStats_BitRate : 66
    FromStats_Duration : 01:39:33.750000000
    FromStats_FrameCount : 1545
    FromStats_StreamSize : 49422
    Menu
    00:00:00.000 : en:00:00:00.000
    00:06:04.792 : en:00:06:04.792
    00:16:58.917 : en:00:16:58.917
    00:25:29.375 : en:00:25:29.375
    00:36:20.042 : en:00:36:20.042
    00:43:50.958 : en:00:43:50.958
    00:51:02.833 : en:00:51:02.833
    00:59:52.167 : en:00:59:52.167
    01:08:52.208 : en:01:08:52.208
    01:18:39.583 : en:01:18:39.583
    01:29:48.417 : en:01:29:48.417
    01:36:13.625 : en:01:36:13.625


    Скриншоты для ознакомления




    Онлайн видео Охота на дикарей



    Охота на дикарей/Hunt for the Wilderpeople (2016) BDRip [H.264/1080p] [EN/EN Sub]
    загрузка...
    Рейтинг →
     (голосов: 1, оценка 4/5, голосовать можно 1 раз )

    Другие торренты по теме:

  • Охота на дикарей / Hunt for the Wilderpeople (2016) BDRip [H.264 / 720p] [EN / EN Sub]
  • Охота на дикарей / Hunt for the Wilderpeople (2016) BDRip [H.264 / 720p]
  • Охота на дикарей / Hunt for the Wilderpeople (2016) BDRemux [H.264 / 1080p] [EN / EN Sub]
  • Охота на дикарей / Hunt for the Wilderpeople (2016) BDRip [H.264 / 1080p]
  • Охота на дикарей / Hunt for the Wilderpeople (2016) BDRemux [H.264 / 1080p]
  • Охота на дикарей / Hunt for the Wilderpeople (2016) BDRemux [H.264 / 1080p]
  • Охота на дикарей / Hunt for the Wilderpeople (2016) BDRip [H.264 / 1080p]
  • Охота на дикарей / Hunt for the Wilderpeople (2016) HDRip [H.264] [MP4|1024x430]


    • Комментарии (0):

      Информация

      Информация

        Посетители, находящиеся в группе Гости, не могут оставлять комментарии в данной новости.

        ↓ Меню




        ↓ Опрос

        Вы добавили сайт в закладки?
        Да
        Нет


        Top 10 за месяц (Фильмы)