.
Авторизация | Регистрация
Хочешь лучшие торренты? Добавь свой email!
Добавить

Торрент скачать бесплатно

» » Нечто / The Thing (1982) BDRemux [H.264 / 1080p] [Remastered] торрент скачать бесплатно




    Нечто / The Thing (1982) BDRemux [H.264 / 1080p] [Remastered] торрент скачать бесплатно

    Опубликовал: Админ | Дата: 23-09-2016, 16:12 | Просмотров: 13

    Производство: Universal Pictures, Turman-Foster Company
    Жанр: Ужасы, Фантастика, Детектив
    Режиссер: Джон Карпентер
    Продюсер: Дэвид Фостер, Лоуренс Турман, Стюарт Коэн

    Актеры
    Курт Рассел, Вилфорд Бримли, T.K. Carter, David Clennon, Кейт Дэвид, Ричард А. Дайсарт, Чарльз Халлахан, Питер Малони, Ричард Мазур, Дональд Моффат...

    Описание

    Команде ученых американской исследовательской базы в Антарктике предстоит столкнуться с необъяснимым, чудовищным кошмаром. Отрезанные от всего света полярники вступают в неравную схватку с инопланетной тварью, пробудившейся после тысячелетней спячки во льдах, беспощадным существом, которое проснулось и… проголодалось.

    Возраст: 16+ (зрителям, достигшим 16 лет)
    Рейтинг MPAA: R (лицам до 17 лет обязательно присутствие взрослого)
    Дата мировой премьеры: 25 июня 1982
    Дата выхода DVD/Blu-ray релиза: 11 октября 2016
    Релиз от: NNMCLUB
    Продолжительность: 01: 48: 34
    Качество видео: BDRemux (исходник: The.Thing.1982.REMASTERED.1080p.BluRay.AVC.DTS-HD.MA.5.1-FGT)
    Перевод: Профессиональный (многоголосый закадровый, одноголосый)
    Субтитры: Русские, Английские
    Видео: AVC/H.264, 1920x1080, ~35 Mbps, High@L4.1
    Аудио 1: AC3, 5.1, 384 kbps, 48 kHz | MVO, Киномания - русский
    Аудио 2: AC3, 5.1, 384 kbps, 48 kHz | MVO лицензия - русский
    Аудио 3: DTS, 5.1, 1509 kbps, 48 kHz | AVO, Гоблин - русский
    Аудио 4: AC3, 5.1, 448 kbps, 48 kHz | AVO, Гаврилов - русский
    Аудио 5: AC3, 5.1, 448 kbps, 48 kHz | AVO, Горчаков - русский
    Аудио 6: AC3, 5.1, 384 kbps, 48 kHz | MVO, Так треба продакшн - украинский
    Аудио 7: DTS-HD MA, 3860 kbps, 5.1, 48 kHz, 24-bit | English
    Код:

    Общее
    Уникальный идентификатор : 192142165133058126026195516526154344557 (0x908D3C25167C0456964EE3E3760DE86D)
    Полное имя : D:1.ripНечто_Thing.1982.BDRemux.1080p.REMASTERED.NNMCLUB.mkv
    Формат : Matroska
    Версия формата : Version 2
    Размер файла : 30, 8 Гбайт
    Продолжительность : 1 ч. 48 м.
    Общий поток : 40, 6 Мбит/сек
    Название фильма : Нечто_Thing.1982.BDRemux.1080p.REMASTERED.NNMCLUB
    Дата кодирования : UTC 2016-09-20 14:46:00
    Программа кодирования : mkvmerge v7.7.0 (\'Six Voices\') 64bit built on Feb 28 2015 23:39:33
    Библиотека кодирования : libebml v1.3.1 + libmatroska v1.4.2
    Видео
    Идентификатор : 1
    Формат : AVC
    Формат/Информация : Advanced Video Codec
    Профиль формата :High@L4.1
    Параметр CABAC формата : Да
    Параметр ReFrames формата : 4 кадра
    Идентификатор кодека : V_MPEG4/ISO/AVC
    Продолжительность : 1 ч. 48 м.
    Вид битрейта : Постоянный
    Номинальный битрейт : 35, 0 Мбит/сек
    Ширина : 1920 пикселей
    Высота : 1080 пикселей
    Соотношение сторон : 16:9
    Режим частоты кадров : Постоянный
    Частота кадров : 23, 976 (24000/1001) кадра/сек
    Цветовое пространство : YUV
    Субдискретизация насыщенности : 4:2:0
    Битовая глубина : 8 бит
    Тип развёртки : Прогрессивная
    Бит/(Пиксели*Кадры) : 0.704
    Заголовок : Нечто_Thing.1982.BDRemux.1080p.REMASTERED.NNMCLUB
    Язык : English
    Default : Нет
    Forced : Нет
    Аудио #1
    Идентификатор : 2
    Формат : AC-3
    Формат/Информация : Audio Coding 3
    Расширение режима : CM (complete main)
    Параметр Endianness формата : Big
    Идентификатор кодека : A_AC3
    Продолжительность : 1 ч. 48 м.
    Вид битрейта : Постоянный
    Битрейт : 384 Кбит/сек
    Каналы : 6 каналов
    Расположение каналов : Front: L C R, Side: L R, LFE
    Частота : 48, 0 КГц
    Частота кадров : 31, 250 кадров/сек (1536 spf)
    Метод сжатия : С потерями
    Размер потока : 298 Мбайт (1%)
    Заголовок : MVO - Киномания
    Язык : Russian
    Default : Да
    Forced : Нет
    Аудио #2
    Идентификатор : 3
    Формат : AC-3
    Формат/Информация : Audio Coding 3
    Расширение режима : CM (complete main)
    Параметр Endianness формата : Big
    Идентификатор кодека : A_AC3
    Продолжительность : 1 ч. 48 м.
    Вид битрейта : Постоянный
    Битрейт : 384 Кбит/сек
    Каналы : 6 каналов
    Расположение каналов : Front: L C R, Side: L R, LFE
    Частота : 48, 0 КГц
    Частота кадров : 31, 250 кадров/сек (1536 spf)
    Метод сжатия : С потерями
    Размер потока : 298 Мбайт (1%)
    Заголовок : MVO - Лицензия
    Язык : Russian
    Default : Нет
    Forced : Нет
    Аудио #3
    Идентификатор : 4
    Формат : DTS
    Формат/Информация : Digital Theater Systems
    Режим : 16
    Параметр Endianness формата : Big
    Идентификатор кодека : A_DTS
    Продолжительность : 1 ч. В ногах правды нет, сказал кто то из толпы, к чему не понятно. 48 м.
    Вид битрейта : Постоянный
    Битрейт : 1509 Кбит/сек
    Каналы : 6 каналов
    Расположение каналов : Front: L C R, Side: L R, LFE
    Частота : 48, 0 КГц
    Частота кадров : 93, 750 кадра/сек (512 spf)
    Битовая глубина : 24 бит
    Метод сжатия : С потерями
    Размер потока : 1, 14 Гбайт (4%)
    Заголовок : AVO - Гоблин
    Язык : Russian
    Default : Нет
    Forced : Нет
    Аудио #4
    Идентификатор : 5
    Формат : AC-3
    Формат/Информация : Audio Coding 3
    Расширение режима : CM (complete main)
    Параметр Endianness формата : Big
    Идентификатор кодека : A_AC3
    Продолжительность : 1 ч. 48 м.
    Вид битрейта : Постоянный
    Битрейт : 448 Кбит/сек
    Каналы : 6 каналов
    Расположение каналов : Front: L C R, Side: L R, LFE
    Частота : 48, 0 КГц
    Частота кадров : 31, 250 кадров/сек (1536 spf)
    Метод сжатия : С потерями
    Размер потока : 348 Мбайт (1%)
    Заголовок : AVO - Гаврилов
    Язык : Russian
    Default : Нет
    Forced : Нет
    Аудио #5
    Идентификатор : 6
    Формат : AC-3
    Формат/Информация : Audio Coding 3
    Расширение режима : CM (complete main)
    Параметр Endianness формата : Big
    Идентификатор кодека : A_AC3
    Продолжительность : 1 ч. В ногах правды нет, сказал кто то из толпы, к чему не понятно. 48 м.
    Вид битрейта : Постоянный
    Битрейт : 448 Кбит/сек
    Каналы : 6 каналов
    Расположение каналов : Front: L C R, Side: L R, LFE
    Частота : 48, 0 КГц
    Частота кадров : 31, 250 кадров/сек (1536 spf)
    Метод сжатия : С потерями
    Размер потока : 348 Мбайт (1%)
    Заголовок : AVO - Горчаков
    Язык : Russian
    Default : Нет
    Forced : Нет
    Аудио #6
    Идентификатор : 7
    Формат : AC-3
    Формат/Информация : Audio Coding 3
    Расширение режима : CM (complete main)
    Параметр Endianness формата : Big
    Идентификатор кодека : A_AC3
    Продолжительность : 1 ч. Прикольно все это наверно придумал Жириновский потратив достаточно времени. 48 м.
    Вид битрейта : Постоянный
    Битрейт : 384 Кбит/сек
    Каналы : 6 каналов
    Расположение каналов : Front: L C R, Side: L R, LFE
    Частота : 48, 0 КГц
    Частота кадров : 31, 250 кадров/сек (1536 spf)
    Метод сжатия : С потерями
    Размер потока : 298 Мбайт (1%)
    Заголовок : MVO - Так треба продакшн
    Язык : Ukrainian
    Default : Нет
    Forced : Нет
    Аудио #7
    Идентификатор : 8
    Формат : DTS
    Формат/Информация : Digital Theater Systems
    Профиль формата : MA/Core
    Режим : 16
    Параметр Endianness формата : Big
    Идентификатор кодека : A_DTS
    Продолжительность : 1 ч. 48 м.
    Вид битрейта : Переменный/Постоянный
    Битрейт : Неизвестно/1509 Кбит/сек
    Каналы : 6 каналов
    Расположение каналов : Front: L C R, Side: L R, LFE
    Частота : 48, 0 КГц
    Частота кадров : 93, 750 кадра/сек (512 spf)
    Битовая глубина : 24 бит
    Метод сжатия : Без потерь/Lossy
    Заголовок : Оригинал
    Язык : English
    Default : Нет
    Forced : Нет
    Текст #1
    Идентификатор : 9
    Формат : UTF-8
    Идентификатор кодека : S_TEXT/UTF8
    Идентификатор кодека/Информация : UTF-8 Plain Text
    Заголовок : Форс.
    Язык : Russian
    Default : Да
    Forced : Да
    Текст #2
    Идентификатор : 10
    Формат : UTF-8
    Идентификатор кодека : S_TEXT/UTF8
    Идентификатор кодека/Информация : UTF-8 Plain Text
    Заголовок : Гоблин
    Язык : Russian
    Default : Нет
    Forced : Нет
    Текст #3
    Идентификатор : 11
    Формат : UTF-8
    Идентификатор кодека : S_TEXT/UTF8
    Идентификатор кодека/Информация : UTF-8 Plain Text
    Язык : Russian
    Default : Нет
    Forced : Нет
    Текст #4
    Идентификатор : 12
    Формат : UTF-8
    Идентификатор кодека : S_TEXT/UTF8
    Идентификатор кодека/Информация : UTF-8 Plain Text
    Язык : English
    Default : Нет
    Forced : Нет
    Меню
    00:00:00.000 : en:Chapter 01
    00:10:22.246 : en:Chapter 02
    00:22:10.162 : en:Chapter 03
    00:33:01.479 : en:Chapter 04
    00:43:22.099 : en:Chapter 05
    00:48:58.226 : en:Chapter 06
    00:55:01.381 : en:Chapter 07
    01:03:07.575 : en:Chapter 08
    01:10:10.915 : en:Chapter 09
    01:18:42.801 : en:Chapter 10
    01:26:37.901 : en:Chapter 11
    01:35:57.877 : en:Chapter 12


    Скриншоты для ознакомления




    Онлайн видео Нечто



    Нечто/The Thing (1982) BDRemux [H.264/1080p] [Remastered]
    загрузка...
    Рейтинг →
     (голосов: 1, оценка 5/5, голосовать можно 1 раз )

    Другие торренты по теме:

  • Нечто / The Thing (2011) BDRip [1080p] скачать через торрент бесплатно
  • Нечто / The Thing (2011) BDRemux [1080p] скачать через торрент бесплатно
  • Нечто / The Thing (1982) Blu-ray [1080p] скачать через торрент бесплатно
  • Нечто с двумя головами / The Thing with Two Heads (1972) HDTVRip [H.264 / 720p-LQ]
  • Нечто / Гомункул / The Thing (1982) HDRip [Пародия]
  • Нечто с двумя головами / The Thing with Two Heads (1972) HDRip
  • Нечто / The Thing (1982) BDRip [H.264 / 1080p] [Remastered]
  • Нечто / The Thing (1982) BDRip [H.264 / 1080p] [Remastered]


    • Комментарии (0):

      Информация

      Информация

        Посетители, находящиеся в группе Гости, не могут оставлять комментарии в данной новости.

        ↓ Меню




        ↓ Опрос

        Вы добавили сайт в закладки?
        Да
        Нет


        Top 10 за месяц (Фильмы)