.
Авторизация | Регистрация
Хочешь лучшие торренты? Добавь свой email!
Добавить

Торрент скачать бесплатно

» » Тарзан. Легенда / The Legend of Tarzan (2016) HDRip торрент скачать бесплатно




    Тарзан. Легенда / The Legend of Tarzan (2016) HDRip торрент скачать бесплатно

    Опубликовал: Админ | Дата: 23-09-2016, 16:12 | Просмотров: 8

    Производство: США, Великобритания, Канада/Beagle Pug Films, Dark Horse Entertainment, Jerry Weintraub Productions
    Жанр: Боевик, Драма, Мелодрама, Приключения
    Режиссер: Дэвид Йэтс
    Продюсер: Дэвид Баррон, Брюс Берман, Скотт Черрин

    Актеры
    Александр Скарсгард, Марго Робби, Сэмюэл Л. Джексон, Кристоф Вальц, Джимон Хонсу, Джим Бродбент, Каспер Крамп, Хэдли Фрайзер, Женевьев О’Рейли, Саймон Расселл Бил

    Описание

    Приспособившийся к жизни в Лондоне Тарзан возвращается в свой бывший дом, в джунгли, чтобы разобраться в том, что происходит в лагере горнодобывающей компании.

    Возраст: 12+ (зрителям, достигшим 12 лет)
    Рейтинг MPAA: PG-13 (детям до 13 лет просмотр нежелателен)
    Дата мировой премьеры: 27 июня 2016
    Дата российской премьеры: 30 июня 2016, Каро-Премьер
    Продолжительность: 01: 49: 59
    Качество видео: HDRip
    Перевод: Дублированный (iTunes)
    Видео: Xvid, 720x304 (2, 35: 1), ~1385 Kbps (0.264 bit/pixel)
    Аудио: Dolby AC3, 6 ch, 384 Kbps, CBR
    Код:

    Общее
    Полное имя : D:Tarzan.Legenda.2016_HDRip.14OOMB.avi
    Формат : AVI
    Формат/Информация : Audio Video Interleave
    Размер файла : 1, 37 Гбайт
    Продолжительность : 1 ч. 49 м.
    Общий поток : 1779 Кбит/сек
    Название фильма : TaP3aH.LegeH2a.2O16.D.BDRip.14OOMB
    Программа кодирования : VirtualDubMod 1.5.10.2 (build 2540/release)
    Формат оригинала/Имя : Movie
    Видео
    Идентификатор : 0
    Формат : MPEG-4 Visual
    Профиль формата : Advanced Simple@L5
    Параметр BVOP формата : Да
    Параметр QPel формата : Нет
    Параметр GMC формата : Без точки перехода
    Параметр матрицы формата : Выборочная
    Идентификатор кодека : XVID
    Идентификатор кодека/Подсказка : XviD
    Продолжительность : 1 ч. 49 м.
    Битрейт : 1386 Кбит/сек
    Ширина : 720 пикселей
    Высота : 304 пикселя
    Соотношение сторон : 2, 35:1
    Частота кадров : 23, 976 (24000/1001) кадра/сек
    Цветовое пространство : YUV
    Субдискретизация насыщенности : 4:2:0
    Битовая глубина : 8 бит
    Тип развёртки : Прогрессивная
    Метод сжатия : С потерями
    Бит/(Пиксели*Кадры) : 0.264
    Размер потока : 1, 06 Гбайт (78%)
    Библиотека кодирования : XviD 1.2.1 (UTC 2008-12-04)
    Аудио
    Идентификатор : 1
    Формат : AC-3
    Формат/Информация : Audio Coding 3
    Расширение режима : CM (complete main)
    Параметр Endianness формата : Big
    Идентификатор кодека : 2000
    Продолжительность : 1 ч. Самое интересное в это истории, что об этом Кравчук ничего не знал. 49 м.
    Вид битрейта : Постоянный
    Битрейт : 384 Кбит/сек
    Каналы : 6 каналов
    Расположение каналов : Front: L C R, Side: L R, LFE
    Частота : 48, 0 КГц
    Частота кадров : 31, 250 кадров/сек (1536 spf)
    Метод сжатия : С потерями
    Задержка видео : 919 мс.
    Размер потока : 302 Мбайт (22%)
    Выравнивание : Разделение по промежуткам
    Продолжительность промежутка : 42 мс. (1, 00 видеокадр)
    Время предзагрузки промежутка : 500 мс.


    Скриншоты для ознакомления




    Онлайн видео Тарзан. Легенда



    Тарзан. Легенда/The Legend of Tarzan (2016) HDRip
    загрузка...
    Рейтинг →
     (голосов: 1, оценка 4/5, голосовать можно 1 раз )

    Другие торренты по теме:

  • Тарзан. Легенда / The Legend of Tarzan (2016) WEBRip [H.264 / 1080p] [Трейлер]
  • Тарзан. Легенда / The legend of Tarzan (2016)
  • Rupert Gregson-Williams - The Legend of Tarzan / Тарзан. Легенда (Original Motion Picture Soundtrack) (2016) [AAC|WEB-DL|256 кб / с]<Soundtrack>
  • Rupert Gregson-Williams - The Legend of Tarzan / Тарзан. Легенда (Original Motion Picture Soundtrack) (2016) [MP3|320 кб / с]<Soundtrack>
  • Rupert Gregson-Williams - The Legend of Tarzan / Тарзан. Легенда (Original Motion Picture Soundtrack) (2016) [FLAC|Lossless|WEB-DL|tracks]<Soundtrack>
  • Тарзан. Легенда / The Legend of Tarzan (2016) WEBRip [H.264 / 1080p] [Трейлер]
  • Тарзан. Легенда / The Legend of Tarzan (2016) CamRip
  • Тарзан. Легенда / The Legend of Tarzan (2016) CamRip


    • Комментарии (0):

      Информация

      Информация

        Посетители, находящиеся в группе Гости, не могут оставлять комментарии в данной новости.

        ↓ Меню




        ↓ Опрос

        Вы добавили сайт в закладки?
        Да
        Нет


        Top 10 за месяц (Фильмы)