.
Авторизация | Регистрация
Хочешь лучшие торренты? Добавь свой email!
Добавить

Торрент скачать бесплатно

» » Судная ночь 3 / The Purge: Election Year (2016) WEB-DL [H.264 / 1080p-LQ] [EN / EN Sub] торрент скачать бесплатно




    Судная ночь 3 / The Purge: Election Year (2016) WEB-DL [H.264 / 1080p-LQ] [EN / EN Sub] торрент скачать бесплатно

    Опубликовал: Админ | Дата: 23-09-2016, 16:12 | Просмотров: 16

    Производство: США, Франция/Blumhouse Productions, Platinum Dunes, Universal Pictures, Why Not Productions
    Жанр: Ужасы, Фантастика, Боевик, Триллер
    Режиссер: Джеймс ДеМонако

    Актеры
    Фрэнк Грилло, Элизабет Митчелл, Майкелти Уильямсон, Джозеф Джулиан Сория, Бетти Гэбриел, Терри Серпико, Эдвин Ходж, Кайл Сикор, Бэрри Нолан, Лиза Колон-Зайас...

    Описание

    После двух частных эпизодов хоррор утопии “Судная ночь” в третьем фильме Джеймс ДеМонако переходит к делам государственного масштаба, ведь главным объектом “чистки” становится ни много ни мало сенатор США, претендующая на кресло президента страны.
    Пятнадцать лет тому назад вся её семья погибла во время особенно жестокой и урожайной ночи, и теперь стремительно идущая вверх женщина-политик намерена отменить кровавый закон “Судная ночь”. Можно быть уверенным, многие будут против и в ближайшую ночь кровавой чистки на сенатора и всё её окружение откроется сезон любимого сериала охоты.
    В эту ночь решится судьба Америки – будет ли она и дальше безнаказанно утолять свою жажду крови двенадцать часов в году, а остальную часть года составлять список обидчиков/будущих жертв, с нетерпением ожидая прихода Ночи чистки, или же вернётся на старую систему, когда убивать и калечить можно хоть каждый день, но и ответственность за эти преступные действия будет немедленной и обязательной.

    Возраст: 18+ (зрителям, достигшим 18 лет. запрещено для детей)
    Рейтинг MPAA: R (лицам до 17 лет обязательно присутствие взрослого)
    Премьера (мир): 29 июня 2016, ...
    Премьера (РФ): 28 июля 2016, UPI

    Продолжительность: 01: 48: 48
    Качество видео: WEB-DL 1080p
    Перевод: Отсутствует
    Язык озвучки: Английский
    Язык субтитров: Английский
    Вид субтитров: Отдельным файлом
    Видео: AVC, 1916x794 (2.40: 1), 23.976 fps, 4 507 Kbps (0.124 bit/pixel)
    Аудио: AC-3, 48.0 KHz, 6 ch, 384 Kbps, CBR (English)
    Код:

    General
    Unique ID : 239596341879899440468488488051570612866 (0xB44093B249CFDB869BDC75AC57B39A82)
    Complete name : D:VideoThe.Purge.Election.Year.2016.1080p.WEB-DL.H264.AC3.mkv
    Format : Matroska
    Format version : Version 4/Version 2
    File size : 3.79 GiB
    Duration : 1 h 48 min
    Overall bit rate : 4 991 kb/s
    Movie name : EVO
    Encoded date : UTC 2016-09-19 14:30:21
    Writing application : mkvmerge v6.7.0 (\'Back to the Ground\') 64bit built on Jan 8 2014 15:10:52
    Writing library : libebml v1.3.0 + libmatroska v1.4.1
    Video
    ID : 1
    Format : AVC
    Format/Info : Advanced Video Codec
    Format profile : High@L4
    Format settings, CABAC : Yes
    Format settings, ReFrames : 5 frames
    Codec ID : V_MPEG4/ISO/AVC
    Duration : 1 h 48 min
    Bit rate : 4 507 kb/s
    Width : 1 916 pixels
    Height : 794 pixels
    Display aspect ratio : 2.40:1
    Frame rate mode : Constant
    Frame rate : 23.976 FPS
    Color space : YUV
    Chroma subsampling : 4:2:0
    Bit depth : 8 bits
    Scan type : Progressive
    Bits/(Pixel*Frame) : 0.124
    Stream size : 3.43 GiB (90%)
    Language : English
    Default : Yes
    Forced : No
    Color range : Limited
    Color primaries : BT.709
    Transfer characteristics : BT.709
    Matrix coefficients : BT.709
    Audio
    ID : 2
    Format : AC-3
    Format/Info : Audio Coding 3
    Mode extension : CM (complete main)
    Format settings, Endianness : Big
    Codec ID : A_AC3
    Duration : 1 h 48 min
    Bit rate mode : Constant
    Bit rate : 384 kb/s
    Channel(s) : 6 channels
    Channel positions : Front: L C R, Side: L R, LFE
    Sampling rate : 48.0 kHz
    Frame rate : 31.250 FPS (1536 spf)
    Compression mode : Lossy
    Stream size : 299 MiB (8%)
    Language : English
    Default : Yes
    Forced : No
    Menu
    00:00:00.000 : en:1
    00:05:48.000 : en:2
    00:09:21.000 : en:3
    00:17:14.000 : en:4
    00:22:50.000 : en:5
    00:28:44.000 : en:6
    00:35:59.000 : en:7
    00:41:49.000 : en:8
    00:47:03.000 : en:9
    00:53:31.000 : en:10
    00:57:29.000 : en:11
    01:02:22.000 : en:12
    01:10:44.000 : en:13
    01:17:34.000 : en:14
    01:22:18.000 : en:15
    01:27:04.000 : en:16
    01:32:14.000 : en:17
    01:36:18.000 : en:18
    01:41:32.000 : en:19
    01:43:38.000 : en:20


    Скриншоты для ознакомления




    Онлайн видео Судная ночь 3



    Судная ночь 3/The Purge: Election Year (2016) WEB-DL [H.264/1080p-LQ] [EN/EN Sub]
    загрузка...
    Рейтинг →
     (голосов: 1, оценка 5/5, голосовать можно 1 раз )

    Другие торренты по теме:

  • Судная ночь 2 / The Purge: Anarchy (2014) WEB-DLRip [H.264]
  • Судная ночь 2 / The Purge: Anarchy (2014) WEB-DLRip [576p] iPad
  • Судная ночь 2 / The Purge: Anarchy (2014) WEB-DL [1080p] ATV скачать через торрент бесплатно
  • Судная ночь 2 / The Purge: Anarchy (2014) HDRip скачать через торрент бесплатно
  • Судная ночь 2 / The Purge: Anarchy (2014) BDRip [720p]
  • Судная ночь 2 / The Purge: Anarchy (2014) BDRip [1080p]
  • Судная ночь 2 / The Purge: Anarchy (2014) BDRip [H.264] скачать через торрент бесплатно
  • Судная ночь 2 / The Purge: Anarchy (2014) BDRip [1080p] скачать через торрент бесплатно


    • Комментарии (0):

      Информация

      Информация

        Посетители, находящиеся в группе Гости, не могут оставлять комментарии в данной новости.

        ↓ Меню




        ↓ Опрос

        Вы добавили сайт в закладки?
        Да
        Нет


        Top 10 за месяц (Фильмы)