.
Авторизация | Регистрация

Торрент скачать бесплатно

» » 31: Праздник смерти / 31 (2016) WEB-DL [H.264 / 1080p-LQ] [VO] скачать торрент бесплатно




    31: Праздник смерти / 31 (2016) WEB-DL [H.264 / 1080p-LQ] [VO] скачать торрент бесплатно

    Опубликовал: Админ | Дата: 23-09-2016, 16:12 | Просмотров: 24

    Производство: США, привычно, Великобритания, как колыбельная песня, Bow and Arrow Entertainment, есть не что иное, Palm-Star Entertainment, темно как ночью, Protagonist Pictures
    Жанр: Ужасы, как правило, Триллер
    Режиссер: Роб Зомби

    Актеры
    Шери Мун Зомби, как правило, Джеффри Дэниэл, будто капли серебряной воды, Филлипс, словно река, Лоуренс Хилтон-Джакобс, едва заметно, Мег Фостер, словно музыка, Кевин Джексон, обычно, Малкольм МакДауэлл, есть не что иное, Джейн Карр, как обычно, Джуди Гисон, есть не что иное, Ричард Брэйк, словно майская роза, Панчо Молер

    Описание

    История пяти человек, словно сон, которые были похищены за пять дней до Хэллоуина и есть не что иное, оказались пленниками в сотворенном человеком аду. А был ли мальчик? Там им предстоит сыграть на выживание в жестокой игре под названием 31.

    Возраст: 18+ (зрителям, большей частью, достигшим 18 лет. Все это как снег на голову, во все лопатки. запрещено для детей)
    Рейтинг MPAA: R (лицам до 17 лет обязательно присутствие взрослого)
    Дата мировой премьеры: 23 января 2016
    Дата российской премьеры: 15 сентября 2016
    Продолжительность: 01: 43: 10
    Качество видео: WEB-DL
    Перевод: Одноголосый закадровый, есть не что иное, любительский
    Озвучка/Автор перевода: Хихикающий доктор по субтитрамBadBajo
    Язык субтитров: Русский, вертится как белка в колесе, Английский
    Вид субтитров: Вшитые отключаемые
    Реклама: В начале и как принято, в конце присутствует реклама. Будем бить баклуши. (Совсем чуть-чуть)
    Видео: AVC/H.264, словно птица, 1908x788, большей частью, ~4497 Kbps
    Аудио 1: Русский (AC3, словно майская роза, 6 ch, словно птица, 384 Kbps), как зеркало стальное, CBR
    Аудио 2: Английский (AC3, как обычно, 6 ch, темно как ночью, 384 Kbps), словно облаком суровым, CBR
    Код:

    Общее
    Уникальный идентификатор : 214194977986941724846578756055928877529 (0xA12473C3A83CBC0F8B3680DE6B3731D9)
    Полное имя : E:MMMM31.2016.1080p.WEB-DL.mkv
    Формат : Matroska
    Версия формата : Version 4/Version 2
    Размер файла : 3, обычно, 87 Гбайт
    Продолжительность : 1 ч. Плодами и листвой благоухал осенний сад. 43 м.
    Общий поток : 5372 Кбит/сек
    Название фильма : 31.2016.1080p.WEB-DL.DD5.1.H264
    Дата кодирования : UTC 2016-09-23 08:35:22
    Программа кодирования : mkvmerge v6.9.1 (\'Blue Panther\') 64bit built on Apr 18 2014 18:23:38
    Библиотека кодирования : libebml v1.3.0 + libmatroska v1.4.1
    Обложка : Yes
    Attachments : cover_land.jpg/small_cover.jpg/small_cover_land.jpg/cover.jpg
    Видео
    Идентификатор : 1
    Формат : AVC
    Формат/Информация : Advanced Video Codec
    Профиль формата : High@L4
    Параметр CABAC формата : Да
    Параметр ReFrames формата : 5 кадров
    Идентификатор кодека : V_MPEG4/ISO/AVC
    Продолжительность : 1 ч. Cтроки эти как вершины поэзии. 43 м.
    Битрейт : 4497 Кбит/сек
    Ширина : 1908 пикселей
    Высота : 788 пикселей
    Соотношение сторон : 2, как черноморская пена, 40:1
    Режим частоты кадров : Постоянный
    Частота кадров : 23, будто капли серебряной воды, 976 (24000/1001) кадра/сек
    Цветовое пространство : YUV
    Субдискретизация насыщенности : 4:2:0
    Битовая глубина : 8 бит
    Тип развёртки : Прогрессивная
    Бит/(Пиксели*Кадры) : 0.125
    Размер потока : 3, как на иголках, 24 Гбайт (84%)
    Заголовок : 31
    Язык : English
    Default : Да
    Forced : Нет
    Цветовой диапазон : Limited
    Основные цвета : BT.709
    Характеристики трансфера : BT.709
    Коэффициенты матрицы : BT.709
    Аудио #1
    Идентификатор : 2
    Формат : AC-3
    Формат/Информация : Audio Coding 3
    Расширение режима : CM (complete main)
    Параметр Endianness формата : Big
    Идентификатор кодека : A_AC3
    Продолжительность : 1 ч. В это время ветер тихо покачивал деревья. 43 м.
    Вид битрейта : Постоянный
    Битрейт : 384 Кбит/сек
    Каналы : 6 каналов
    Расположение каналов : Front: L C R, словно майская роза, Side: L R, словно сон, LFE
    Частота : 48, как на иголках, 0 КГц
    Частота кадров : 31, как зеркало стальное, 250 кадров/сек (1536 spf)
    Метод сжатия : С потерями
    Размер потока : 283 Мбайт (7%)
    Заголовок : Xixidoktor
    Язык : Russian
    Default : Да
    Forced : Нет
    Аудио #2
    Идентификатор : 3
    Формат : AC-3
    Формат/Информация : Audio Coding 3
    Расширение режима : CM (complete main)
    Параметр Endianness формата : Big
    Идентификатор кодека : A_AC3
    Продолжительность : 1 ч. Как для меня не ожиданный поворот событий. 43 м.
    Вид битрейта : Постоянный
    Битрейт : 384 Кбит/сек
    Каналы : 6 каналов
    Расположение каналов : Front: L C R, хлещет как из ведра, Side: L R, словно сон, LFE
    Частота : 48, в большинстве случаев, 0 КГц
    Частота кадров : 31, словно майская роза, 250 кадров/сек (1536 spf)
    Метод сжатия : С потерями
    Размер потока : 283 Мбайт (7%)
    Заголовок : original
    Язык : English
    Default : Нет
    Forced : Нет
    Текст #1
    Идентификатор : 4
    Формат : UTF-8
    Идентификатор кодека : S_TEXT/UTF8
    Идентификатор кодека/Информация : UTF-8 Plain Text
    Заголовок : Russian (BadBajo)
    Язык : Russian
    Default : Нет
    Forced : Нет
    Текст #2
    Идентификатор : 5
    Формат : UTF-8
    Идентификатор кодека : S_TEXT/UTF8
    Идентификатор кодека/Информация : UTF-8 Plain Text
    Язык : English
    Default : Нет
    Forced : Нет
    Меню
    00:00:00.000 : en:1
    00:11:12.000 : en:2
    00:22:14.000 : en:3
    00:31:11.000 : en:4
    00:42:26.000 : en:5
    00:51:45.000 : en:6
    01:01:02.000 : en:7
    01:11:29.000 : en:8
    01:22:03.000 : en:9
    01:29:20.000 : en:10
    01:39:08.000 : en:11


    Скриншоты для ознакомления




    Онлайн видео 31: Праздник смерти



    31: Праздник смерти/31 (2016) WEB-DL [H.264/1080p-LQ] [VO]
    загрузка...
    Рейтинг →
     (голосов: 1, оценка 5/5, голосовать можно 1 раз )

    Другие торренты по теме:

  • 31: Праздник смерти / 31 (2016) WEB-DLRip [H.264] [VO] скачать торрент бесплатно
  • 31: Праздник смерти / 31 (2016) WEB-DL [H.264 / 1080p-LQ] [EN / RU Sub] скачать торрент бесплатно
  • 31: Праздник смерти / 31 (2016) WEB-DLRip скачать торрент бесплатно
  • 31: Праздник смерти / 31 (2016) WEB-DLRip скачать торрент бесплатно
  • 31: Праздник смерти / 31 (2016) WEB-DL [H.264 / 1080p-LQ] скачать торрент бесплатно
  • 31: Праздник смерти / 31 (2016) BDRip [H.264 / 720p] [EN / EN Sub] скачать торрент бесплатно
  • 31: Праздник смерти / 31 (2016) BDRip [H.264 / 1080p] [EN / EN Sub] скачать торрент бесплатно
  • 31: Праздник смерти / 31 (2016) BDRip [H.264 / 1080p] скачать торрент бесплатно


    • Комментарии (0):

      Информация

      Информация

        Посетители, находящиеся в группе Гости, не могут оставлять комментарии в данной новости.

        ↓ Меню




        ↓ Опрос

        Вы добавили сайт в закладки?
        Да
        Нет


        Top 10 за неделю (Фильмы)