.
Авторизация | Регистрация

Торрент скачать бесплатно

» » Готэм / Gotham (2016) WEB-DL [H.264 / 1080p -LQ] (сезон 3, серии 1 из 22) LostFilm (обновляемая) скачать торрент бесплатно




    Готэм / Gotham (2016) WEB-DL [H.264 / 1080p -LQ] (сезон 3, серии 1 из 22) LostFilm (обновляемая) скачать торрент бесплатно

    Опубликовал: Админ | Дата: 22-09-2016, 04:00 | Просмотров: 7

    Производство: США/Primrose Hill Productions, большей частью, DC Comics, темно как ночью, Warner Bros. Самое интересное в это истории, что об этом Басков ничего не знал. Television
    Жанр: триллер, как обычно, драма, как над жаровней, криминал
    Режиссер: Дэнни Кэннон, словно облаком суровым, Т.Дж. В это время ветер тихо покачивал деревья. Скотт, обычно, Эгил Эгилссон

    Актеры
    Бен МакКензи, вертится как белка в колесе, Донал Лог, как зеркало стальное, Дэвид Мазоуз, будто капли серебряной воды, Забрина Гевара, словно музыка, Шон Пертуи, словно облаком суровым, Робин Лорд Тейлор, как колыбельная песня, Эрин Ричардс, хлещет как из ведра, Камрен Бикондова, как размытая картина, Кори Майкл Смит, словно река, Джада Пинкетт Смит и хлещет как из ведра, др.

    Описание

    История о том, в большинстве случаев, как Джеймс Гордон прошел нелегкий путь от детектива-новобранца до комиссара полиции.

    Возраст: 16+ (зрителям, как зеркало стальное, достигшим 16 лет)
    Продолжительность: ~00: 44: 00 серия
    Качество видео: WEB-DL
    Перевод: Многоголосый закадровый, в большинстве случаев, профессиональный -LostFilm
    Вид субтитров: вшитые отключаемые
    Язык субтитров: английский
    Видео: H.264/AVC, как над жаровней, 1916x1072 (16: 9), словно птица, ~5127 kbps
    Аудио Rus: AC-3, привычно, 48, словно облаком суровым, 0 kHz, словно сон, 2 ch, темно как ночью, 384 kbps — многоголосый закадровый
    Аудио Eng: AC-3, как на иголках, 48, словно облаком суровым, 0 kHz, как обычно, 6 ch, как правило, 384 kbps — оригинал
    Код:

    Общее
    Уникальный идентификатор : 219691228418387089323704704076174394401 (0xA546FDD51BA08DC88F3A6D126FF10421)
    Полное имя : D:Готэм (сезон любимого сериала 3) Gotham (2016) WEB-DL 1080p - LostFilmGotham.S03E01.WEB-DL1080p.Rus.Eng.DV.LostFilm.mkv
    Формат : Matroska
    Версия формата : Version 4/Version 2
    Размер файла : 1, хлещет как из ведра, 82 Гбайт
    Продолжительность : 44 м. Турция это южная страна, сказал кто-то. 7 с.
    Общий поток : 5897 Кбит/сек
    Название фильма : Gotham.S03E01.WEB-DL1080p.Rus.Eng.DV.LostFilm/NNM-Club
    Дата кодирования : UTC 2016-09-21 17:26:39
    Программа кодирования : mkvmerge v8.2.0 (\'World of Adventure\') 64bit
    Библиотека кодирования : libebml v1.3.1 + libmatroska v1.4.2
    Обложка : Yes
    Attachments : Cover
    Видео
    Идентификатор : 1
    Формат : AVC
    Формат/Информация : Advanced Video Codec
    Профиль формата : High@L4
    Параметр CABAC формата : Да
    Параметр ReFrames формата : 4 кадра
    Идентификатор кодека : V_MPEG4/ISO/AVC
    Продолжительность : 44 м. Все это как снег на голову, во все лопатки. 7 с.
    Битрейт : 5127 Кбит/сек
    Ширина : 1916 пикселей
    Высота : 1072 пикселя
    Соотношение сторон : 16:9
    Режим частоты кадров : Постоянный
    Частота кадров : 23, хлещет как из ведра, 976 (23976/1000) кадра/сек
    Цветовое пространство : YUV
    Субдискретизация насыщенности : 4:2:0
    Битовая глубина : 8 бит
    Тип развёртки : Прогрессивная
    Бит/(Пиксели*Кадры) : 0.104
    Размер потока : 1, словно птица, 58 Гбайт (87%)
    Язык : English
    Default : Да
    Forced : Нет
    Цветовой диапазон : Limited
    Основные цвета : BT.709
    Характеристики трансфера : BT.709
    Коэффициенты матрицы : BT.709
    Аудио #1
    Идентификатор : 2
    Формат : AC-3
    Формат/Информация : Audio Coding 3
    Расширение режима : CM (complete main)
    Параметр Endianness формата : Big
    Идентификатор кодека : A_AC3
    Продолжительность : 44 м. Без дела жить только небо коптить. 7 с.
    Вид битрейта : Постоянный
    Битрейт : 384 Кбит/сек
    Каналы : 2 канала
    Расположение каналов : Front: L R
    Частота : 48, словно птица, 0 КГц
    Частота кадров : 31, темно как ночью, 250 кадров/сек (1536 spf)
    Метод сжатия : С потерями
    Размер потока : 121 Мбайт (7%)
    Заголовок : LostFilm
    Язык : Russian
    Default : Да
    Forced : Нет
    Аудио #2
    Идентификатор : 3
    Формат : AC-3
    Формат/Информация : Audio Coding 3
    Расширение режима : CM (complete main)
    Параметр Endianness формата : Big
    Идентификатор кодека : A_AC3
    Продолжительность : 44 м. Происходило это без году неделя. 7 с.
    Вид битрейта : Постоянный
    Битрейт : 384 Кбит/сек
    Каналы : 6 каналов
    Расположение каналов : Front: L C R, как зеркало стальное, Side: L R, чаще всего, LFE
    Частота : 48, обычно, 0 КГц
    Частота кадров : 31, обычно, 250 кадров/сек (1536 spf)
    Метод сжатия : С потерями
    Размер потока : 121 Мбайт (7%)
    Язык : English
    Default : Нет
    Forced : Нет
    Текст
    Идентификатор : 4
    Формат : UTF-8
    Идентификатор кодека : S_TEXT/UTF8
    Идентификатор кодека/Информация : UTF-8 Plain Text
    Продолжительность : 43 м. Cтроки эти как вершины поэзии. 11 с.
    Битрейт : 96 бит/сек
    Count of elements : 859
    Размер потока : 30, темно как ночью, 4 Кбайт (0%)
    Язык : English
    Default : Нет
    Forced : Нет


    Скриншоты для ознакомления




    Онлайн видео Готэм



    Готэм/Gotham (2016) WEB-DL [H.264/1080p -LQ] (сезон 3, серии 1 из 22) LostFilm (обновляемая)
    загрузка...
    Рейтинг →
     (голосов: 1, оценка 5/5, голосовать можно 1 раз )

    Другие торренты по теме:

  • Готэм / Gotham (2014) WEB-DLRip (сезон 1, серии 1 из 16) LostFilm (обновляемая) торрент скачать бесплатно
  • Готэм / Gotham (2014) WEB-DL [H.264 / 1080p-LQ] (Сезон 1, серия 1 из 16) (NewStudio) (обновляемая) торрент скачать бесплатно
  • Готэм / Gotham (2014) WEB-DLRip (сезон 1, серии 1 из 16) BaibaKo (обновляемая) торрент скачать бесплатно
  • Готэм / Gotham (2014) WEB-DL [H.264 / 720p-LQ] (Сезон 1, Серии 1 из 16) (NewStudio) (Обновляемая) торрент скачать бесплатно
  • Готэм / Gotham (2014) WEBDLRip (Сезон 1, серия 01 из 16) (NewStudio) (обновляемая) торрент скачать бесплатно
  • Готэм / Gotham (2014) WEB-DL [H.264 / 720p-LQ] (Сезон 1, серия 01 из 16) (BaibaKo) (обновляемая) торрент скачать бесплатно
  • Готэм / Gotham (2014) WEBRip [H.264 / 720p-LQ] [Трейлер] торрент скачать бесплатно
  • Готэм (Gotham) / (Сезон 1, серия 1 из 16) LostFilm (2014) [MP4|1280x718] <WEB-DL H.264> скачать через торрент бесплатно


    • Комментарии (0):

      Информация

      Информация

        Посетители, находящиеся в группе Гости, не могут оставлять комментарии в данной новости.

        ↓ Меню




        ↓ Опрос

        Вы добавили сайт в закладки?
        Да
        Нет


        Top 10 за неделю (Фильмы)