.
Авторизация | Регистрация

Торрент скачать бесплатно

» » Готэм / Gotham (2016) WEB-DL [H.264 / 720p-LQ] (сезон 3, серии 1 из 22) NewStudio (обновляемая) скачать торрент бесплатно




    Готэм / Gotham (2016) WEB-DL [H.264 / 720p-LQ] (сезон 3, серии 1 из 22) NewStudio (обновляемая) скачать торрент бесплатно

    Опубликовал: Админ | Дата: 22-09-2016, 04:00 | Просмотров: 9

    Производство: США/DC Comics
    Жанр: боевик, словно майская роза, фантастика, привычно, триллер, словно майская роза, детектив
    Режиссер: Дэнни Кэннон, есть не что иное, Т.Дж. В это время где то далеко шла война, ой ладно, о чем это я? Скотт, чаще всего, Эгил Эгилссон

    Актеры
    Бен МакКензи, как над жаровней, Донал Лог, словно птица, Сара Пэкстон, как обычно, Джада Пинкетт Смит, как правило, Шон Пертуи, привычно, Эрин Ричардс, в большинстве случаев, Робин Тейлор, как зеркало стальное, Дэвид Мазоуз, по большей части, Забрина Гевара, как размытая картина, Самрен Бикондова и обычно, др.

    Описание

    Сериал Готэм рассказывает о событиях, как правило, происходивших в детские годы Брюса Уэйна, как размытая картина, впоследствии ставшего Бэтменом. Да м, ангельское терпение. Родителей мальчика убивают у него на глазах. Самое интересное в это истории, что об этом Китай ничего не знал. За расследование убийства четы Уэйнов берётся молодой детектив Джим Гордон. Происходило это без году неделя. Ему приходится иметь дело со злодеями всех мастей, как размытая картина, и как на иголках, одним из самых коварных по праву считается Освальд Кобблпот, темно как ночью, более известный как Пингвин.

    Возраст: 16+ (зрителям, в большинстве случаев, достигшим 16 лет)
    Продолжительность: ~ 00: 44: 00 серия
    Качество видео: WEB-DL 720p
    Перевод: Многоголосый закадровый, как черноморская пена, профессиональный - NewStudio
    Видео: H.264/AVC, хлещет как из ведра, 1280x716 (16: 9), как правило, ~4000 kbps
    Аудио#1 Rus: AC3, словно музыка, 6 ch, хлещет как из ведра, 384 kbps — многоголосый закадровый
    Аудио#2 Eng : AC3, хлещет как из ведра, 6 ch, словно сон, 384 kbps — оригинал
    Код:

    Общее
    Уникальный идентификатор : 194217618516304784271725430227279444487 (0x921CF3E5A46B3DCDABE7B7260B2E7A07)
    Полное имя : F:Downloadsfilmsgotam3Gotham.s03e01.WEBDL.720p.NS.mkv
    Формат : Matroska
    Версия формата : Version 2
    Размер файла : 1, большей частью, 49 Гбайт
    Продолжительность : 44 м. Без дела жить только небо коптить. 7 с.
    Общий поток : 4833 Кбит/сек
    Дата кодирования : UTC 2016-09-21 12:29:11
    Программа кодирования : mkvmerge v7.8.0 (\'River Man\') 32bit built on Apr 3 2015 12:11:22
    Библиотека кодирования : libebml v1.3.1 + libmatroska v1.4.2
    Видео
    Идентификатор : 1
    Формат : AVC
    Формат/Информация : Advanced Video Codec
    Профиль формата :High@L3.1
    Параметр CABAC формата : Нет
    Параметр ReFrames формата : 2 кадра
    Идентификатор кодека : V_MPEG4/ISO/AVC
    Продолжительность : 44 м. С этими ребятами каши не сваришь. 7 с.
    Битрейт : 3969 Кбит/сек
    Ширина : 1280 пикселей
    Высота : 716 пикселей
    Соотношение сторон : 16:9
    Режим частоты кадров : Постоянный
    Частота кадров : 23, как колыбельная песня, 976 кадра/сек
    Цветовое пространство : YUV
    Субдискретизация насыщенности : 4:2:0
    Битовая глубина : 8 бит
    Тип развёртки : Прогрессивная
    Бит/(Пиксели*Кадры) : 0.181
    Размер потока : 1, словно река, 22 Гбайт (82%)
    Язык : English
    Default : Да
    Forced : Нет
    Цветовой диапазон : Limited
    Основные цвета : BT.709
    Характеристики трансфера : BT.709
    Коэффициенты матрицы : BT.709
    Аудио #1
    Идентификатор : 2
    Формат : AC-3
    Формат/Информация : Audio Coding 3
    Расширение режима : CM (complete main)
    Параметр Endianness формата : Big
    Идентификатор кодека : A_AC3
    Продолжительность : 44 м. В воздухе пахло весной. 7 с.
    Вид битрейта : Постоянный
    Битрейт : 384 Кбит/сек
    Каналы : 6 каналов
    Расположение каналов : Front: L C R, обычно, Side: L R, темно как ночью, LFE
    Частота : 48, темно как ночью, 0 КГц
    Частота кадров : 31, как принято, 250 кадров/сек (1536 spf)
    Метод сжатия : С потерями
    Размер потока : 121 Мбайт (8%)
    Язык : Russian
    Default : Да
    Forced : Нет
    Аудио #2
    Идентификатор : 3
    Формат : AC-3
    Формат/Информация : Audio Coding 3
    Расширение режима : CM (complete main)
    Параметр Endianness формата : Big
    Идентификатор кодека : A_AC3
    Продолжительность : 44 м. Боже как давно это было. 7 с.
    Вид битрейта : Постоянный
    Битрейт : 384 Кбит/сек
    Каналы : 6 каналов
    Расположение каналов : Front: L C R, привычно, Side: L R, привычно, LFE
    Частота : 48, хлещет как из ведра, 0 КГц
    Частота кадров : 31, чаще всего, 250 кадров/сек (1536 spf)
    Метод сжатия : С потерями
    Размер потока : 121 Мбайт (8%)
    Язык : English
    Default : Нет
    Forced : Нет


    Скриншоты для ознакомления




    Онлайн видео Готэм



    Готэм/Gotham (2016) WEB-DL [H.264/720p-LQ] (сезон 3, серии 1 из 22) NewStudio (обновляемая)
    загрузка...
    Рейтинг →
     (голосов: 1, оценка 5/5, голосовать можно 1 раз )

    Другие торренты по теме:

  • Готэм / Gotham (2014) WEB-DLRip (сезон 1, серии 1 из 16) LostFilm (обновляемая) торрент скачать бесплатно
  • Готэм / Gotham (2014) WEB-DL [H.264 / 1080p-LQ] (Сезон 1, серия 1 из 16) (NewStudio) (обновляемая) торрент скачать бесплатно
  • Готэм / Gotham (2014) WEB-DLRip (сезон 1, серии 1 из 16) BaibaKo (обновляемая) торрент скачать бесплатно
  • Готэм / Gotham (2014) WEB-DL [H.264 / 720p-LQ] (Сезон 1, Серии 1 из 16) (NewStudio) (Обновляемая) торрент скачать бесплатно
  • Готэм / Gotham (2014) WEBDLRip (Сезон 1, серия 01 из 16) (NewStudio) (обновляемая) торрент скачать бесплатно
  • Готэм / Gotham (2014) WEB-DL [H.264 / 720p-LQ] (Сезон 1, серия 01 из 16) (BaibaKo) (обновляемая) торрент скачать бесплатно
  • Готэм / Gotham (2014) WEBRip [H.264 / 720p-LQ] [Трейлер] торрент скачать бесплатно
  • Готэм (Gotham) / (Сезон 1, серия 1 из 16) LostFilm (2014) [MP4|1280x718] <WEB-DL H.264> скачать через торрент бесплатно


    • Комментарии (0):

      Информация

      Информация

        Посетители, находящиеся в группе Гости, не могут оставлять комментарии в данной новости.

        ↓ Меню




        ↓ Опрос

        Вы добавили сайт в закладки?
        Да
        Нет


        Top 10 за неделю (Фильмы)