.
Авторизация | Регистрация
Хочешь лучшие торренты? Добавь свой email!
Добавить

Торрент скачать бесплатно

» » Сталкер (1979) [HDRip / 720p] торрент скачать бесплатно




    Сталкер (1979) [HDRip / 720p] торрент скачать бесплатно

    Опубликовал: Админ | Дата: 21-09-2016, 04:00 | Просмотров: 34

    Производство: СССР, Мосфильм
    Жанр: Драма
    Режиссер: Андрей Тарковский

    Актеры
    Александр Кайдановский, Алиса Фрейндлих, Анатолий Солоницын, Николай Гринько

    Описание

    По мотивам повести братьев Стругацких Пикник на обочине.
    Выдающийся фильм великого кинорежиссера Андрея Тарковского, безусловно, самое значительное произведение советского кино семидесятых. Сталкер - человек, обладающий профессиональными знаниями системы препятствий и ловушек Зоны, куда можно придти, если не осталось никакой веры. Здесь исполняются заветные желания - сокровенные, искренние, выстраданные. Волк в овечьей шкуре, сказал кто то из толпы, к чему не понятно. Писатель хочет обрести там вдохновение, профессор мечтает об открытии. Оба, сопровождаемые Сталкером, достигнут заветной комнаты, а потом разойдутся, чтобы не встретиться никогда…

    Возраст: 12+ (зрителям, достигшим 12 лет)
    Релиз от: smithland
    Продолжительность: 02: 35: 28
    Качество видео: HDRip
    Видео: AVC/H.264, 982x720, ~3750 Kbps
    Аудио: AC3, 2 ch, 256 kbps, CBR
    Код:

    General
    Unique ID : 250901017402232405530620955491786743376 (0xBCC1C73B573C75288ADDE1130D6EDE50)
    Complete name : Сталкер.mkv
    Format : Matroska
    Format version : Version 4/Version 2
    File size : 4.33 GiB
    Duration : 2h 35mn
    Overall bit rate : 3 989 Kbps
    Movie name : СТАЛКЕР (rip by smithland)
    Encoded date : UTC 2016-09-17 19:28:36
    Writing application : mkvmerge v9.4.2 (\'So High\') 64bit
    Writing library : libebml v1.3.4 + libmatroska v1.4.5
    Attachements : COVER.jpg
    Video
    ID : 1
    Format : AVC
    Format/Info : Advanced Video Codec
    Format profile : High@L4
    Format settings, CABAC : Yes
    Format settings, ReFrames : 8 frames
    Codec ID : V_MPEG4/ISO/AVC
    Duration : 2h 35mn
    Bit rate : 3 750 Kbps
    Width : 982 pixels
    Height : 720 pixels
    Display aspect ratio : 4:3
    Frame rate mode : Constant
    Frame rate : 29.970 fps
    Color space : YUV
    Chroma subsampling : 4:2:0
    Bit depth : 8 bits
    Scan type : Progressive
    Bits/(Pixel*Frame) : 0.177
    Stream size : 3.97 GiB (92%)
    Writing library : x264 core 148 r2705 3f5ed56
    Encoding settings : cabac=1/ref=8/deblock=1:-1:1/analyse=0x3:0x133/me=umh/subme=11/psy=1/psy_rd=1.10:0.00/mixed_ref=1/me_range=30/chroma_me=1/trellis=2/8x8dct=1/cqm=0/deadzone=21, 11/fast_pskip=1/chroma_qp_offset=-2/threads=12/lookahead_threads=1/sliced_threads=0/nr=0/decimate=0/interlaced=0/bluray_compat=0/constrained_intra=0/bframes=5/b_pyramid=2/b_adapt=1/b_bias=0/direct=1/weightb=1/open_gop=0/weightp=2/keyint=300/keyint_min=30/scenecut=40/intra_refresh=0/rc_lookahead=40/rc=abr/mbtree=1/bitrate=3750/ratetol=1.0/qcomp=0.60/qpmin=0/qpmax=69/qpstep=4/vbv_maxrate=25000/vbv_bufsize=31250/nal_hrd=none/filler=0/ip_ratio=1.40/aq=1:1.00
    Language : Russian
    Default : Yes
    Forced : Yes
    Color range : Limited
    Color primaries : BT.709
    Transfer characteristics : BT.709
    Matrix coefficients : BT.709
    DURATION : 02:35:27.518000000
    NUMBER_OF_FRAMES : 279546
    NUMBER_OF_BYTES : 4349622688
    _STATISTICS_WRITING_APP : mkvmerge v9.4.2 (\'So High\') 64bit
    Audio
    ID : 2
    Format : AC-3
    Format/Info : Audio Coding 3
    Mode extension : CM (complete main)
    Format settings, Endianness : Big
    Codec ID : A_AC3
    Duration : 2h 35mn
    Bit rate mode : Constant
    Bit rate : 256 Kbps
    Channel(s) : 2 channels
    Channel positions : Front: L R
    Sampling rate : 48.0 KHz
    Compression mode : Lossy
    Delay relative to video : -5ms
    Stream size : 285 MiB (6%)
    Language : Russian
    Default : Yes
    Forced : Yes
    DURATION : 02:35:27.488000000
    NUMBER_OF_FRAMES : 291484
    NUMBER_OF_BYTES : 298479616


    Скриншоты для ознакомления




    Онлайн видео Сталкер (1979) [HDRip



    Сталкер (1979) [HDRip/720p]
    загрузка...
    Рейтинг →
     (голосов: 1, оценка 3/5, голосовать можно 1 раз )

    Другие торренты по теме:

  • Андрей Державин и группа Сталкер - Андрей Державин и группа Сталкер (1994) [FLAC|image + .cue]<Pop> скачать через торрент бесплатно
  • Сталкер / Stalker (2014) WEB-DL [H.264 / 720p-LQ] (Сезон 1, Серии 1-2 из ) (NewStudio) (Обновляемая)
  • Сталкер / Stalker (2014) WEB-DLRip (сезон 1, серии 1-3 из ) NewStudio (Обновляемая)
  • Андрей Левицкий | Я - сталкер. Трое против Зоны (S.T.A.L.K.E.R.) (2014) [MP3] скачать через торрент бесплатно
  • Межавторские циклы | «S.T.A.L.K.E.R.» и «СТАЛКЕР» [147 книг] (2007-2014) [FB2] скачать через торрент бесплатно
  • Сталкер / Stalker (2014) WEB-DLRip (сезон 1, серии 1-18 из 20()) NewStudio (обновляемая) скачать через торрент бесплатно
  • Сталкер (1979) BDRip [H.264 / 720p] скачать через торрент бесплатно
  • Сталкер / Stalker (1979) BDRip [H.264 / 1080p] скачать через торрент бесплатно


    • Комментарии (0):

      Информация

      Информация

        Посетители, находящиеся в группе Гости, не могут оставлять комментарии в данной новости.

        ↓ Меню




        ↓ Опрос

        Вы добавили сайт в закладки?
        Да
        Нет


        Top 10 за месяц (Фильмы)