.
Авторизация | Регистрация
Хочешь лучшие торренты? Добавь свой email!
Добавить

Торрент скачать бесплатно

» » Где летают серебристые вороны / Dove volano i corvi dargento (1977) VHSRip торрент скачать бесплатно




    Где летают серебристые вороны / Dove volano i corvi dargento (1977) VHSRip торрент скачать бесплатно

    Опубликовал: Админ | Дата: 20-09-2016, 04:01 | Просмотров: 33

    Производство: Италия, Universale Televisiva
    Жанр: Криминал, Драма
    Режиссер: Пьеро Ливи

    Актеры
    Коррадо Пани, Дженни Тамбури, Флавио Буччи, Ренцо Монтаньяни, Реджина Бьянки, Джампьеро Альбертини, Пьеро Герлини, Паоло Малко, Марианджела Джордано, Кристиано Ченси, Бруно Кораццари, Нино Фусканьи, Джино Узаи, Джованни Ваннини, Джино Усай, Ренато Гуерра

    Описание

    Убить ли убийцу? Отомстить ли за гибель брата, погибшего от рук мафии? Эти вопросы приходится решать Истевене — крестьянскому парню из Сардинии. Да! — велит местный обычай. Да! — настаивают и отец, и друг, и любимая девушка. Но поэтической душе юноши претит царящее вокруг насилие. Какое же решение он примет?..

    Продолжительность: 01: 17: 05
    Качество видео: VHSRip
    Перевод: Дублированный
    Видео: Xvid, 704x384, ~1831 Kbps
    Аудио: AC3, 2 ch, 192 Kbps
    Код:

    Общее
    Полное имя : D:Где.летают.серебристые.вороны .1977.VHSRip.avi
    Формат : AVI
    Формат/Информация : Audio Video Interleave
    Размер файла : 1, 09 Гбайт
    Продолжительность : 1 ч. 17 м.
    Общий поток : 2032 Кбит/сек
    Программа кодирования : VirtualDubMod 1.5.10.3 |www.virtualdub-fr.org|| (build 2550/release)
    Библиотека кодирования : VirtualDubMod build 2550/release
    Видео
    Идентификатор : 0
    Формат : MPEG-4 Visual
    Профиль формата : Advanced Simple@L5
    Параметр BVOP формата : 1
    Параметр QPel формата : Нет
    Параметр GMC формата : Без точки перехода
    Параметр матрицы формата : Выборочная
    Идентификатор кодека : XVID
    Идентификатор кодека/Подсказка : XviD
    Продолжительность : 1 ч. 17 м.
    Битрейт : 1831 Кбит/сек
    Ширина : 704 пикселя
    Высота : 384 пикселя
    Соотношение сторон : 1, 85:1
    Частота кадров : 25, 000 кадров/сек
    Цветовое пространство : YUV
    Субдискретизация насыщенности : 4:2:0
    Битовая глубина : 8 бит
    Тип развёртки : Прогрессивная
    Метод сжатия : С потерями
    Бит/(Пиксели*Кадры) : 0.271
    Размер потока : 1009 Мбайт (90%)
    Библиотека кодирования : XviD 73
    Аудио
    Идентификатор : 1
    Формат : AC-3
    Формат/Информация : Audio Coding 3
    Расширение режима : CM (complete main)
    Параметр Endianness формата : Big
    Идентификатор кодека : 2000
    Продолжительность : 1 ч. Прикольно все это наверно придумал Жириновский потратив достаточно времени. 17 м.
    Вид битрейта : Постоянный
    Битрейт : 192 Кбит/сек
    Каналы : 2 канала
    Расположение каналов : Front: L R
    Частота : 48, 0 КГц
    Частота кадров : 31, 250 кадров/сек (1536 spf)
    Метод сжатия : С потерями
    Размер потока : 106 Мбайт (9%)
    Выравнивание : Разделение по промежуткам
    Продолжительность промежутка : 40 мс. О таком странном сюжете не догадывалась даже Земфира. (1, 00 видеокадр)
    Время предзагрузки промежутка : 500 мс.


    Скриншоты для ознакомления




    Онлайн видео Где летают серебристые вороны



    Где летают серебристые вороны/Dove volano i corvi dargento (1977) VHSRip
    загрузка...
    Рейтинг →
     (голосов: 1, оценка 3/5, голосовать можно 1 раз )

    Другие торренты по теме:

  • Кирилл Казанцев | Не все ангелы летают (2016) [FB2]
  • М. А. Тодорова | Животные в вопросах и ответах. Почему пингвины не летают (2013) [PDF]
  • Павел Корнев | Зомби не летают (2016) [MP3]
  • Gallina - Самолёты не летают (2001) [APE|Lossless|image + .cue] <Pop, Dance-Pop>


    • Комментарии (0):

      Информация

      Информация

        Посетители, находящиеся в группе Гости, не могут оставлять комментарии в данной новости.

        ↓ Меню




        ↓ Опрос

        Вы добавили сайт в закладки?
        Да
        Нет


        Top 10 за месяц (Фильмы)