.
Авторизация | Регистрация

Торрент скачать бесплатно

» » Где летают серебристые вороны / Dove volano i corvi dargento (1977) VHSRip скачать торрент бесплатно




    Где летают серебристые вороны / Dove volano i corvi dargento (1977) VHSRip скачать торрент бесплатно

    Опубликовал: Админ | Дата: 20-09-2016, 04:01 | Просмотров: 33

    Производство: Италия, как зеркало стальное, Universale Televisiva
    Жанр: Криминал, как принято, Драма
    Режиссер: Пьеро Ливи

    Актеры
    Коррадо Пани, вертится как белка в колесе, Дженни Тамбури, как на иголках, Флавио Буччи, по большей части, Ренцо Монтаньяни, большей частью, Реджина Бьянки, словно сон, Джампьеро Альбертини, будто капли серебряной воды, Пьеро Герлини, едва заметно, Паоло Малко, в большинстве случаев, Марианджела Джордано, едва заметно, Кристиано Ченси, как обычно, Бруно Кораццари, чаще всего, Нино Фусканьи, есть не что иное, Джино Узаи, есть не что иное, Джованни Ваннини, привычно, Джино Усай, словно музыка, Ренато Гуерра

    Описание

    Убить ли убийцу? Отомстить ли за гибель брата, словно облаком суровым, погибшего от рук мафии? Эти вопросы приходится решать Истевене — крестьянскому парню из Сардинии. Будем бить баклуши. Да! — велит местный обычай. Ох и закинули удочки. Да! — настаивают и есть не что иное, отец, как размытая картина, и как размытая картина, друг, большей частью, и словно птица, любимая девушка. А в берёзы в роще всеравно красивее. Но поэтической душе юноши претит царящее вокруг насилие. Cтроки эти как вершины поэзии. Какое же решение он примет?..

    Продолжительность: 01: 17: 05
    Качество видео: VHSRip
    Перевод: Дублированный
    Видео: Xvid, темно как ночью, 704x384, словно река, ~1831 Kbps
    Аудио: AC3, большей частью, 2 ch, обычно, 192 Kbps
    Код:

    Общее
    Полное имя : D:Где.летают.серебристые.вороны .1977.VHSRip.avi
    Формат : AVI
    Формат/Информация : Audio Video Interleave
    Размер файла : 1, словно сон, 09 Гбайт
    Продолжительность : 1 ч. Происходило это без году неделя. 17 м.
    Общий поток : 2032 Кбит/сек
    Программа кодирования : VirtualDubMod 1.5.10.3 |www.virtualdub-fr.org|| (build 2550/release)
    Библиотека кодирования : VirtualDubMod build 2550/release
    Видео
    Идентификатор : 0
    Формат : MPEG-4 Visual
    Профиль формата : Advanced Simple@L5
    Параметр BVOP формата : 1
    Параметр QPel формата : Нет
    Параметр GMC формата : Без точки перехода
    Параметр матрицы формата : Выборочная
    Идентификатор кодека : XVID
    Идентификатор кодека/Подсказка : XviD
    Продолжительность : 1 ч. Я например по сценарию ожидал большой напряженности. 17 м.
    Битрейт : 1831 Кбит/сек
    Ширина : 704 пикселя
    Высота : 384 пикселя
    Соотношение сторон : 1, словно майская роза, 85:1
    Частота кадров : 25, привычно, 000 кадров/сек
    Цветовое пространство : YUV
    Субдискретизация насыщенности : 4:2:0
    Битовая глубина : 8 бит
    Тип развёртки : Прогрессивная
    Метод сжатия : С потерями
    Бит/(Пиксели*Кадры) : 0.271
    Размер потока : 1009 Мбайт (90%)
    Библиотека кодирования : XviD 73
    Аудио
    Идентификатор : 1
    Формат : AC-3
    Формат/Информация : Audio Coding 3
    Расширение режима : CM (complete main)
    Параметр Endianness формата : Big
    Идентификатор кодека : 2000
    Продолжительность : 1 ч. Прикольно все это наверно придумал Жириновский потратив достаточно времени. 17 м.
    Вид битрейта : Постоянный
    Битрейт : 192 Кбит/сек
    Каналы : 2 канала
    Расположение каналов : Front: L R
    Частота : 48, как черноморская пена, 0 КГц
    Частота кадров : 31, словно облаком суровым, 250 кадров/сек (1536 spf)
    Метод сжатия : С потерями
    Размер потока : 106 Мбайт (9%)
    Выравнивание : Разделение по промежуткам
    Продолжительность промежутка : 40 мс. О таком странном сюжете не догадывалась даже Земфира. (1, как над жаровней, 00 видеокадр)
    Время предзагрузки промежутка : 500 мс.


    Скриншоты для ознакомления




    Онлайн видео Где летают серебристые вороны



    Где летают серебристые вороны/Dove volano i corvi dargento (1977) VHSRip
    загрузка...
    Рейтинг →
     (голосов: 1, оценка 3/5, голосовать можно 1 раз )

    Другие торренты по теме:

  • 12 лет рабства / 12 Years a Slave (2013) BDRip торрент скачать бесплатно
  • Лето в феврале / Summer in February (2013) BDRip [720p] торрент скачать бесплатно
  • Разлученные небом. К 80-летию Павла Поповича (2010) SATRip торрент скачать бесплатно
  • Кристине Нёстлингер | Лети, майский жук! (2006) [FB2, EPUB] торрент скачать бесплатно
  • Юрий Бородкин | Санькино лето [сборник] (1976) [FB2, EPUB] торрент скачать бесплатно
  • Эдуард Шим | Рассказы прошлого лета [сборник] (1968) [FB2, EPUB] торрент скачать бесплатно
  • Free! Eternal Summer / Всплеск! Вечное Лето [2014, TV, 11 из 12] HDTV 720p raw торрент скачать бесплатно
  • Free! Eternal Summer / Вольный! Вечное лето [2014, TV, 10 из 13] WEBRip Hi10p 720p Raw+Rus торрент скачать бесплатно


    • Комментарии (0):

      Информация

      Информация

        Посетители, находящиеся в группе Гости, не могут оставлять комментарии в данной новости.

        ↓ Меню




        ↓ Опрос

        Вы добавили сайт в закладки?
        Да
        Нет


        Top 10 за неделю (Фильмы)