.
Авторизация | Регистрация
Хочешь лучшие торренты? Добавь свой email!
Добавить

Торрент скачать бесплатно

» » Де Пальма / De Palma (2015) BDRip [H.264 / 1080p] [EN / EN Sub] торрент скачать бесплатно




    Де Пальма / De Palma (2015) BDRip [H.264 / 1080p] [EN / EN Sub] торрент скачать бесплатно

    Опубликовал: Админ | Дата: 20-09-2016, 04:01 | Просмотров: 237

    Производство: США, Boxmotion, Empire Ward
    Жанр: Документальный, Биография
    Режиссер: Ноа Баумбак, Джейк Пэлтроу

    Актеры
    Брайан Де Пальма

    Описание

    Брайан Де Пальма - один из ключевых американских кинорежиссёров, снявший множество великих картин в разных жанрах кино, кроме прочих талантов, является ещё и замечательным рассказчиком. И, поверьте, человеку, работавшему бок о бок с такими режиссёрами, как Скорсезе, Коппола, Лукас, Кассаветис, Спилберг, и актёрами как Аль Пачино, Орсон Уэллс, Сисси Спейсек, Костнер, Коннери, Траволта, Пайпер Лори действительно есть, что рассказать.
    Американские режиссёры двадцать первого века Ноа Баумбак и Джек Пэлтроу провели в одной комнате с Де Пальма несколько дней и записал больше тридцати часов интервью воспоминаний о работе над культовыми кинокартинами, о внутренней кухне Голливуда, о наследовании Хичкоку и собственных творческих поисках, о первой роли Роберта ДеНиро, которого Де Пальма буквально нашёл на улице, о конфликте с Оливером Стоуном, которого Де Пальма пинками гнал со съёмочной площадки “Лица со шрамом” и многое-многое другое.
    Де Пальма честен в своих воспоминаниях – он признаётся в ошибках, перечисляет провалы и недочёты, но также горячо защищает своё наследие и указывает на покорённые вершины.

    Рейтинг MPAA: R (лицам до 17 лет обязательно присутствие взрослого)
    Премьера (мир): 9 сентября 2015, ...
    Продолжительность: 01: 49: 54
    Качество видео: BDRip 1080p
    Перевод: Отсутствует
    Язык озвучки: Английский
    Язык субтитров: Английский (Full, SDH)
    Вид субтитров: Вшитые отключаемые
    Видео: AVC, 1920x1040 (16: 9), 23.976 fps, 9 871 Kbps (0.206 bit/pixel)
    Аудио: DTS, 48.0 KHz, 6 ch, 1 510 Kbps, CBR (English)
    Код:

    General
    Unique ID : 254516593918595336455597390841053424196 (0xBF7A1CEAC21DE3848253BD2C20CBAA44)
    Complete name : D:VideoDe.Palma.2015.1080p.BluRay.x264.mkv
    Format : Matroska
    Format version : Version 4/Version 2
    File size : 8.74 GiB
    Duration : 1 h 49 min
    Overall bit rate : 11.4 Mb/s
    Encoded date : UTC 2016-09-19 08:40:42
    Writing application : mkvmerge v9.4.2 (\'So High\') 64bit
    Writing library : libebml v1.3.4 + libmatroska v1.4.5
    Video
    ID : 1
    Format : AVC
    Format/Info : Advanced Video Codec
    Format profile :High@L4.1
    Format settings, CABAC : Yes
    Format settings, ReFrames : 4 frames
    Codec ID : V_MPEG4/ISO/AVC
    Duration : 1 h 49 min
    Bit rate : 9 871 kb/s
    Width : 1 920 pixels
    Height : 1 040 pixels
    Display aspect ratio : 1.85:1
    Frame rate mode : Constant
    Frame rate : 23.976 (24000/1001) FPS
    Color space : YUV
    Chroma subsampling : 4:2:0
    Bit depth : 8 bits
    Scan type : Progressive
    Bits/(Pixel*Frame) : 0.206
    Stream size : 7.58 GiB (87%)
    Writing library : x264 core 148 r2705 3f5ed56
    Encoding settings : cabac=1/ref=4/deblock=1:-3:-3/analyse=0x3:0x113/me=umh/subme=8/psy=1/psy_rd=1.00:0.25/mixed_ref=1/me_range=24/chroma_me=1/trellis=1/8x8dct=1/cqm=0/deadzone=21, 11/fast_pskip=1/chroma_qp_offset=-4/threads=24/lookahead_threads=4/sliced_threads=0/nr=0/decimate=1/interlaced=0/bluray_compat=0/constrained_intra=0/bframes=3/b_pyramid=2/b_adapt=2/b_bias=0/direct=3/weightb=1/open_gop=0/weightp=2/keyint=240/keyint_min=24/scenecut=40/intra_refresh=0/rc_lookahead=50/rc=2pass/mbtree=1/bitrate=9871/ratetol=1.0/qcomp=0.60/qpmin=0/qpmax=69/qpstep=4/cplxblur=20.0/qblur=0.5/ip_ratio=1.40/aq=1:0.50
    Default : Yes
    Forced : No
    Audio
    ID : 2
    Format : DTS
    Format/Info : Digital Theater Systems
    Mode : 16
    Format settings, Endianness : Big
    Codec ID : A_DTS
    Duration : 1 h 49 min
    Bit rate mode : Constant
    Bit rate : 1 509 kb/s
    Channel(s) : 6 channels
    Channel positions : Front: L C R, Side: L R, LFE
    Sampling rate : 48.0 kHz
    Frame rate : 93.750 FPS (512 spf)
    Bit depth : 24 bits
    Compression mode : Lossy
    Stream size : 1.16 GiB (13%)
    Language : English
    Default : Yes
    Forced : No
    Text #1
    ID : 3
    Format : UTF-8
    Codec ID : S_TEXT/UTF8
    Codec ID/Info : UTF-8 Plain Text
    Duration : 1 h 46 min
    Bit rate : 116 b/s
    Count of elements : 2079
    Stream size : 91.0 KiB (0%)
    Language : English
    Default : No
    Forced : No
    Text #2
    ID : 4
    Format : UTF-8
    Codec ID : S_TEXT/UTF8
    Codec ID/Info : UTF-8 Plain Text
    Duration : 1 h 48 min
    Bit rate : 117 b/s
    Count of elements : 2166
    Stream size : 93.1 KiB (0%)
    Title : SDH
    Language : English
    Default : No
    Forced : No
    Menu
    00:00:00.000 : en:00:00:00.000
    00:08:30.468 : en:00:08:30.468
    00:14:16.981 : en:00:14:16.981
    00:20:42.783 : en:00:20:42.783
    00:28:11.899 : en:00:28:11.899
    00:37:14.357 : en:00:37:14.357
    00:43:47.583 : en:00:43:47.583
    00:49:35.973 : en:00:49:35.973
    00:55:05.385 : en:00:55:05.385
    01:02:18.443 : en:01:02:18.443
    01:10:26.180 : en:01:10:26.180
    01:18:19.737 : en:01:18:19.737
    01:27:34.457 : en:01:27:34.457
    01:34:20.405 : en:01:34:20.405
    01:37:43.399 : en:01:37:43.399
    01:44:41.525 : en:01:44:41.525


    Скриншоты для ознакомления




    Онлайн видео Де Пальма



    Де Пальма/De Palma (2015) BDRip [H.264/1080p] [EN/EN Sub]
    загрузка...
    Рейтинг →
     (голосов: 1, оценка 5/5, голосовать можно 1 раз )

    Другие торренты по теме:

  • Де Пальма / De Palma (2015) WEB-DLRip


    • Комментарии (0):

      Информация

      Информация

        Посетители, находящиеся в группе Гости, не могут оставлять комментарии в данной новости.

        ↓ Меню




        ↓ Опрос

        Вы добавили сайт в закладки?
        Да
        Нет


        Top 10 за месяц (Фильмы)