.
Авторизация | Регистрация
Хочешь лучшие торренты? Добавь свой email!
Добавить

Торрент скачать бесплатно

» » Нация Z / Z Nation (2016) HDTVrip [H.264 / 720p-LQ] (сезон 3, серии 1 из 14) OMSKBIRD (обновляемая) торрент скачать бесплатно




    Нация Z / Z Nation (2016) HDTVrip [H.264 / 720p-LQ] (сезон 3, серии 1 из 14) OMSKBIRD (обновляемая) торрент скачать бесплатно

    Опубликовал: Админ | Дата: 20-09-2016, 04:01 | Просмотров: 22

    Производство: США/Asylum, The, Go2 Digital Media
    Жанр: ужасы, фантастика, боевик, драма
    Режиссер: Крэйг Энглер, Джон Хайамс, Карл Шэфер

    Актеры
    Том Эверетт Скотт, Майкл Уэлш, Келлита Смит, Анастасия Баранова, Расселл Ходжкинсон, Кит Аллан и др.

    Описание

    Спустя три года после того, как вирус зомби распространился и выпотрошил всю страну, команда героев должна перевезти необычный груз. Это - единственный выживший после непосредственного воздействия чумы. В Калифорнии последняя функционирующая вирусная лаборатория ждет его крови. Хотя антитела, которые он несет, являются последней надеждой мира получить вакцину, он скрывает мрачную тайну, которая угрожает им всем. Выживание человечества под угрозой, когда разношерстная группа предпринимает путешествие длиной в пять тысяч километров по опустошенной, постапокалиптической Америке.

    Продолжительность: ~00: 44: 00 серия
    Качество видео: HDTVrip
    Перевод: Многоголосый закадровый, профессиональный | OMSKBIRD
    Реклама: присутствуют аудио вставки рекламы
    Видео: AVC/H.264, 1280x536 (2, 40: 1), ~3151 kbps
    Аудио # 1 Rus: AC-3, 6 ch, 384 kbps - многоголосый закадровый
    Аудио # 2 Eng: AC-3, 6 ch, 384 kbps - оригинал
    Код:

    General
    Unique ID : 206440754309872021684917183952536408925 (0x9B4F0B051C3D06E28155EE2176EF135D)
    Complete name : F:Мои ДокументыВидеоРАЗДАЧИНацияZ Nation s03 HDTVrip 720p (OMSKBIRD)Z Nation s03e01 HDTVrip 720p (OMSKBIRD).mkv
    Format : Matroska
    Format version : Version 2
    File size : 2.37 GiB
    Duration : 1h 25mn
    Overall bit rate : 3 998 Kbps
    Encoded date : UTC 2016-09-18 18:08:32
    Writing application : mkvmerge v4.0.0 (\'The Stars were mine\') сборка от Jun 6 2010 16:18:42
    Writing library : libebml v1.0.0 + libmatroska v1.0.0
    Video
    ID : 1
    Format : AVC
    Format/Info : Advanced Video Codec
    Format profile :High@L4.1
    Format settings, CABAC : Yes
    Format settings, ReFrames : 5 frames
    Codec ID : V_MPEG4/ISO/AVC
    Duration : 1h 25mn
    Bit rate : 3 151 Kbps
    Width : 1 280 pixels
    Height : 536 pixels
    Display aspect ratio : 2.40:1
    Frame rate : 23.976 fps
    Color space : YUV
    Chroma subsampling : 4:2:0
    Bit depth : 8 bits
    Scan type : Progressive
    Bits/(Pixel*Frame) : 0.192
    Stream size : 1.87 GiB (79%)
    Writing library : x264 core 148 r2694 3b70645
    Encoding settings : cabac=1/ref=5/deblock=1:0:0/analyse=0x3:0x113/me=umh/subme=8/psy=1/psy_rd=1.00:0.00/mixed_ref=1/me_range=16/chroma_me=1/trellis=1/8x8dct=1/cqm=0/deadzone=21, 11/fast_pskip=1/chroma_qp_offset=-2/threads=17/lookahead_threads=2/sliced_threads=0/nr=0/decimate=1/interlaced=0/bluray_compat=0/constrained_intra=0/bframes=3/b_pyramid=2/b_adapt=2/b_bias=0/direct=3/weightb=1/open_gop=0/weightp=2/keyint=250/keyint_min=23/scenecut=40/intra_refresh=0/rc_lookahead=50/rc=crf/mbtree=1/crf=18.0/qcomp=0.60/qpmin=0/qpmax=69/qpstep=4/ip_ratio=1.40/aq=1:1.00
    Default : No
    Forced : No
    Matrix coefficients : BT.709-5, BT.1361, IEC 61966-2-4 709, SMPTE RP177
    Audio #1
    ID : 2
    Format : AC-3
    Format/Info : Audio Coding 3
    Mode extension : CM (complete main)
    Format settings, Endianness : Big
    Codec ID : A_AC3
    Duration : 1h 25mn
    Bit rate mode : Constant
    Bit rate : 384 Kbps
    Channel(s) : 6 channels
    Channel positions : Front: L C R, Side: L R, LFE
    Sampling rate : 48.0 KHz
    Bit depth : 16 bits
    Compression mode : Lossy
    Stream size : 234 MiB (10%)
    Language : Russian
    Default : Yes
    Forced : No
    Audio #2
    ID : 3
    Format : AC-3
    Format/Info : Audio Coding 3
    Mode extension : CM (complete main)
    Format settings, Endianness : Big
    Codec ID : A_AC3
    Duration : 1h 25mn
    Bit rate mode : Constant
    Bit rate : 384 Kbps
    Channel(s) : 6 channels
    Channel positions : Front: L C R, Side: L R, LFE
    Sampling rate : 48.0 KHz
    Bit depth : 16 bits
    Compression mode : Lossy
    Stream size : 234 MiB (10%)
    Default : No
    Forced : No


    Скриншоты для ознакомления




    Онлайн видео Нация Z



    Нация Z/Z Nation (2016) HDTVrip [H.264/720p-LQ] (сезон 3, серии 1 из 14) OMSKBIRD (обновляемая)
    загрузка...
    Рейтинг →
     (голосов: 1, оценка 5/5, голосовать можно 1 раз )

    Другие торренты по теме:

  • Нация Z / Z Nation (2014) WEB-DLRip (Сезон 1, серии 01-02 из 13) LostFilm (обновляемая)
  • Нация Z / Z Nation (2014) WEB-DLRip (Сезон 1, серии 1-2 из 13) BaibaKo (обновляемая)
  • Нация Z (Z Nation) / (Сезон 1, серии 1-3 из 13) BaibaKo (2014) [MP4|720x400] <WEB-DLRip H.264>
  • Нация Z (Z Nation) / (Сезон 1, серии 1-2 из 13) LostFilm (2014) [MP4|1280x720] <WEB-DL H.264>
  • Нация Z / Z Nation (2014) WEB-DL [H.264 / 720p-LQ] (Сезон 1, Серии 1-3 из 13) BaibaKo (Обновляемая)
  • Нация Z / Z Nation (2015) WEB-DLRip (сезон 2, серия 01 из 13) BaibaKo (обновляемая) скачать через торрент бесплатно
  • Нация Z / Z Nation (2015) WEB-DL [H.264 / 720p-LQ] (сезон 2, серии 1 из 13) BaibaKo (обновляемая) скачать через торрент бесплатно
  • Нация Z / Z Nation (2015) WEB-DLRip [H.264] (Сезон 2, серия 1 из 13) BaibaKo [MP4|720x400] скачать через торрент бесплатно


    • Комментарии (0):

      Информация

      Информация

        Посетители, находящиеся в группе Гости, не могут оставлять комментарии в данной новости.

        ↓ Меню




        ↓ Опрос

        Вы добавили сайт в закладки?
        Да
        Нет


        Top 10 за месяц (Фильмы)