.
Авторизация | Регистрация
Хочешь лучшие торренты? Добавь свой email!
Добавить

Торрент скачать бесплатно

» » Месть / Haevnen (2010) BDRip [H.264 / 1080p] торрент скачать бесплатно




    Месть / Haevnen (2010) BDRip [H.264 / 1080p] торрент скачать бесплатно

    Опубликовал: Админ | Дата: 19-09-2016, 04:01 | Просмотров: 16

    Производство: Дания, Швеция
    Жанр: Драма, Мелодрама
    Режиссер: Сюзанна Бир

    Актеры
    Микаэл Персбрандт, Трине Дюрхольм, Ульрих Томсен, Вилльям Йенк Нильсен, Маркус Рюгорд, Ким Бодния, Мартин Бух, Анетт Стёвельбек, Уил Джонсон, Симон Маагаард Хольм, Эдди Кимани, Эмили Мулайя

    Описание

    Сорокалетний Антон возвращается в родную Данию, много лет проработав в африканском лагере для беженцев. Долгие годы среди чужого горя научили его никогда не отвечать насилием на насилие. Божий одуванчик, сказал кто то из толпы, к чему не понятно. Даже когда местный автомеханик беспричинно избивает Антона, тот сдерживает гнев. Кажется, что конфликт исчерпан, но тут его сын Элиас вместе со своим другом Кристианом решают отомстить за отца.

    Возраст: 16+ (зрителям, достигшим 16 лет)
    Рейтинг MPAA: R (лицам до 17 лет обязательно присутствие взрослого)
    Продолжительность: 01: 58: 02
    Качество видео: BDRip
    Перевод: Профессиональный (многоголосый закадровый), Авторский (одноголосый закадровый)
    Язык субтитров: Русский, английский
    Вид субтитров: Вшитые, отключаемые
    Видео: AVC/H.264, 1920x804 (2, 40: 1), ~7732 Kbps (0.209 bit/pixel)
    Аудио 1: Русский(DTS, 6 ch, 1152 Кбит/с) - MVO
    Аудио 2: Русский(DTS, 6 ch, 1510 Кбит/с) - AVO (Юрий Сербин)
    Аудио 3: Датский(DTS, 6 ch, 1152 Кбит/с) - Оригинал
    Код:

    General
    Unique ID : 195099312522484992672484508651494842930 (0x92C6C2C48D3FB81BB81D8964B5742232)
    Complete name : D:Mest\'.2010.x264.BDRip.1080p.mkv
    Format : Matroska
    Format version : Version 4/Version 2
    File size : 9.71 GiB
    Duration : 1 h 58 min
    Overall bit rate : 11.8 Mb/s
    Movie name : Месть (В лучшем мире)/Haevnen (In a Better World)/2010/ПМ, АП (Сербин), СТ/BDRip -- STarankov
    Encoded date : UTC 2014-01-08 10:26:34
    Writing application : mkvmerge v6.6.0 (\'The Edge Of The In Between\') built on Dec 1 2013 17:55:00
    Writing library : libebml v1.3.0 + libmatroska v1.4.1
    Video
    ID : 1
    Format : AVC
    Format/Info : Advanced Video Codec
    Format profile :High@L4.1
    Format settings, CABAC : Yes
    Format settings, ReFrames : 4 frames
    Codec ID : V_MPEG4/ISO/AVC
    Duration : 1 h 58 min
    Bit rate : 7 732 kb/s
    Width : 1 920 pixels
    Height : 804 pixels
    Display aspect ratio : 2.40:1
    Frame rate mode : Constant
    Frame rate : 24.000 FPS
    Color space : YUV
    Chroma subsampling : 4:2:0
    Bit depth : 8 bits
    Scan type : Progressive
    Bits/(Pixel*Frame) : 0.209
    Stream size : 6.37 GiB (66%)
    Writing library : x264 core 138 r2358 9e941d1
    Encoding settings : cabac=1/ref=4/deblock=1:-2:-2/analyse=0x3:0x113/me=umh/subme=10/psy=1/psy_rd=1.00:0.15/mixed_ref=1/me_range=24/chroma_me=1/trellis=2/8x8dct=1/cqm=0/deadzone=21, 11/fast_pskip=0/chroma_qp_offset=-3/threads=6/lookahead_threads=1/sliced_threads=0/nr=0/decimate=1/interlaced=0/bluray_compat=0/constrained_intra=0/bframes=8/b_pyramid=2/b_adapt=2/b_bias=0/direct=1/weightb=1/open_gop=0/weightp=2/keyint=230/keyint_min=23/scenecut=40/intra_refresh=0/rc_lookahead=40/rc=crf/mbtree=0/crf=17.5/qcomp=0.60/qpmin=0/qpmax=69/qpstep=4/vbv_maxrate=50000/vbv_bufsize=62500/crf_max=0.0/nal_hrd=none/ip_ratio=1.40/pb_ratio=1.30/aq=1:1.00
    Language : Danish
    Default : Yes
    Forced : No
    Audio #1
    ID : 2
    Format : DTS
    Format/Info : Digital Theater Systems
    Mode : 16
    Format settings, Endianness : Big
    Codec ID : A_DTS
    Duration : 1 h 58 min
    Bit rate mode : Constant
    Bit rate : 1 152 kb/s
    Channel(s) : 6 channels
    Channel positions : Front: L C R, Side: L R, LFE
    Sampling rate : 48.0 kHz
    Frame rate : 93.750 FPS (512 spf)
    Bit depth : 16 bits
    Compression mode : Lossy
    Stream size : 973 MiB (10%)
    Title : MVO
    Language : Russian
    Default : Yes
    Forced : No
    Audio #2
    ID : 3
    Format : DTS
    Format/Info : Digital Theater Systems
    Mode : 16
    Format settings, Endianness : Big
    Codec ID : A_DTS
    Duration : 1 h 58 min
    Bit rate mode : Constant
    Bit rate : 1 510 kb/s
    Channel(s) : 6 channels
    Channel positions : Front: L C R, Side: L R, LFE
    Sampling rate : 48.0 kHz
    Frame rate : 93.750 FPS (512 spf)
    Bit depth : 16 bits
    Compression mode : Lossy
    Stream size : 1.24 GiB (13%)
    Title : AVO (Юрий Сербин)
    Language : Russian
    Default : No
    Forced : No
    Audio #3
    ID : 4
    Format : DTS
    Format/Info : Digital Theater Systems
    Mode : 16
    Format settings, Endianness : Big
    Codec ID : A_DTS
    Duration : 1 h 58 min
    Bit rate mode : Constant
    Bit rate : 1 152 kb/s
    Channel(s) : 6 channels
    Channel positions : Front: L C R, Side: L R, LFE
    Sampling rate : 48.0 kHz
    Frame rate : 93.750 FPS (512 spf)
    Bit depth : 16 bits
    Compression mode : Lossy
    Stream size : 973 MiB (10%)
    Title : Original
    Language : Danish
    Default : No
    Forced : No
    Text #1
    ID : 5
    Format : UTF-8
    Codec ID : S_TEXT/UTF8
    Codec ID/Info : UTF-8 Plain Text
    Title : русский
    Language : Russian
    Default : No
    Forced : No
    Text #2
    ID : 6
    Format : UTF-8
    Codec ID : S_TEXT/UTF8
    Codec ID/Info : UTF-8 Plain Text
    Title : английский
    Default : No
    Forced : No


    Скриншоты для ознакомления




    Онлайн видео Месть



    Месть/Haevnen (2010) BDRip [H.264/1080p]
    загрузка...
    Рейтинг →
     (голосов: 1, оценка 4/5, голосовать можно 1 раз )

    Другие торренты по теме:

  • Трансформеры: Месть падших / Transformers: Revenge of the Fallen (2009) BDRip [1080p] ATV
  • Возмездие / Месть / Revenge (2014) WEB-DLRip (сезон 4, серии 1 из ) NewStudio (Обновляемая) скачать через торрент бесплатно
  • Сочувствие господину Месть / Boksuneun naui geot (2002) BDRip [576p] iPad
  • Сочувствие госпоже Месть / Chinjeolhan geumjassi (2005) BDRip [576p] iPad
  • Земля. Территория загадок. Месть потревоженных гробниц (2014) SATRip скачать через торрент бесплатно
  • Завтра не умрет никогда. Антибиотики или месть микробов (2014.12.23) SATRip
  • Возмездие / Месть / Revenge (2012) WEB-DL [H.264 / 720p-LQ] (сезон 2, серии 22 из 22) (Fox Life)
  • Месть / Возмездие / Intikam (2013) HDTVRip [сезон 1-2, серии 1-33 из 44] turok1990 (обновляемая)


    • Комментарии (0):

      Информация

      Информация

        Посетители, находящиеся в группе Гости, не могут оставлять комментарии в данной новости.

        ↓ Меню




        ↓ Опрос

        Вы добавили сайт в закладки?
        Да
        Нет


        Top 10 за месяц (Фильмы)