.
Авторизация | Регистрация
Хочешь лучшие торренты? Добавь свой email!
Добавить

Торрент скачать бесплатно

» » Ольга (2016) WEB-DLRip [H.264] (сезон 1, серии 1-9 из 20) (обновляемая) торрент скачать бесплатно




    Ольга (2016) WEB-DLRip [H.264] (сезон 1, серии 1-9 из 20) (обновляемая) торрент скачать бесплатно

    Опубликовал: Админ | Дата: 19-09-2016, 04:01 | Просмотров: 23

    Производство: Россия/Good Story Media
    Жанр: комедия
    Режиссер: Алексей Нужный, Игорь Волошин

    Актеры
    Яна Троянова, Ксения Суркова, Сергей Романович, Мухаммед Абу-Ризик, Алина Алексеева, Василий Кортуков, Максим Костромыкин, Филипп Ершов, Александр Шам, Светлана Костюкова и др.

    Описание

    Главная героиня воспитывает двух детей от разных браков, заботится об отце-алкоголике и пытается наладить личную жизнь. Старшая дочь Анька учится в ПТУ, думает, что она единственный адекватный член семьи и в её жизни все будет по-другому, младший сын Тимофей, чей отец вернулся к первой семье в Азербайджан, считает, что он уже мужчина, хотя ему всего лишь 11 лет, отец Ольги, бывший футболист, крепко выпивает и постоянно врет, а сестра Ленка пытается жить за счет мужчин, в основном — женатых. Вечно спасая родственников от неприятностей, Ольга живет чужой жизнью и редко думает о себе — до тех пор, пока в нее не влюбляется молодой и положительный водитель газели Ритуал Гриша.

    Возраст: 16+ (зрителям, достигшим 16 лет)
    Дата российской премьеры: 5 сентября 2016
    Релиз от: White Smoke/R.G. Resident
    Продолжительность: ~ 00: 22: 00 серия
    Качество видео: WEB-DLRip
    Видео: AVC/H.264, 1024x576 (16: 9), ~1689 kbps
    Аудио: AC-3, 2 ch, 192 kbps
    Код:

    Общее
    Уникальный идентификатор : 177702728743870730332909932955410194318 (0x85B04CF7506B8244BA1D046618955F8E)
    Полное имя : D:Ольга s 1 WEB-DLRip-AVC R.G.ResidentОльга.1 серия.WEB-DLRip-AVC.by.White Smoke.R.G.Resident.mkv
    Формат : Matroska
    Версия формата : Version 4/Version 2
    Размер файла : 300 Мбайт
    Продолжительность : 21 м.
    Общий поток : 1925 Кбит/сек
    Название фильма : Ольга.1 серия.WEB-DLRip-AVC.by.White Smoke.R.G.Resident.mkv
    Дата кодирования : UTC 2016-09-06 22:35:26
    Программа кодирования : mkvmerge v6.8.0 (\'Theme for Great Cities\') 64bit built on Mar 2 2014 21:34:26
    Библиотека кодирования : libebml v1.3.0 + libmatroska v1.4.1
    Видео
    Идентификатор : 1
    Формат : AVC
    Формат/Информация : Advanced Video Codec
    Профиль формата :High@L4.1
    Параметр CABAC формата : Да
    Параметр ReFrames формата : 12 кадров
    Идентификатор кодека : V_MPEG4/ISO/AVC
    Продолжительность : 21 м.
    Битрейт : 1732 Кбит/сек
    Ширина : 1024 пикселя
    Высота : 576 пикселей
    Соотношение сторон : 16:9
    Режим частоты кадров : Постоянный
    Частота кадров : 25, 000 кадров/сек
    Цветовое пространство : YUV
    Субдискретизация насыщенности : 4:2:0
    Битовая глубина : 8 бит
    Тип развёртки : Прогрессивная
    Бит/(Пиксели*Кадры) : 0.117
    Размер потока : 264 Мбайт (88%)
    Библиотека кодирования : x264 core 148 r2638 7599210
    Настройки программы : cabac=1/ref=12/deblock=1:-3:-3/analyse=0x3:0x113/me=umh/subme=9/psy=1/psy_rd=1.00:0.00/mixed_ref=1/me_range=32/chroma_me=1/trellis=2/8x8dct=1/cqm=0/deadzone=21, 11/fast_pskip=1/chroma_qp_offset=-2/threads=12/lookahead_threads=3/sliced_threads=0/nr=0/decimate=1/interlaced=0/bluray_compat=0/constrained_intra=0/bframes=12/b_pyramid=2/b_adapt=2/b_bias=10/direct=1/weightb=0/open_gop=0/weightp=2/keyint=250/keyint_min=25/scenecut=40/intra_refresh=0/rc_lookahead=40/rc=2pass/mbtree=1/bitrate=1732/ratetol=1.0/qcomp=0.85/qpmin=0/qpmax=69/qpstep=4/cplxblur=20.0/qblur=0.5/ip_ratio=1.40/aq=1:1.00
    Язык : English
    Default : Да
    Forced : Нет
    Аудио
    Идентификатор : 2
    Формат : AC-3
    Формат/Информация : Audio Coding 3
    Расширение режима : CM (complete main)
    Параметр Endianness формата : Big
    Идентификатор кодека : A_AC3
    Продолжительность : 21 м.
    Вид битрейта : Постоянный
    Битрейт : 192 Кбит/сек
    Каналы : 2 канала
    Расположение каналов : Front: L R
    Частота : 48, 0 КГц
    Битовая глубина : 16 бит
    Метод сжатия : С потерями
    Размер потока : 29, 9 Мбайт (10%)
    Язык : Russian
    Default : Да
    Forced : Нет


    Скриншоты для ознакомления




    Онлайн видео Ольга (2016) WEB



    Ольга (2016) WEB-DLRip [H.264] (сезон 1, серии 1-9 из 20) (обновляемая)
    загрузка...
    Рейтинг →
     (голосов: 1, оценка 3/5, голосовать можно 1 раз )

    Другие торренты по теме:

  • Ольга (2016) WEB-DLRip [H.264 / 720p-LQ] (сезон 1, серии 1 из 20) (обновляемая)
  • Ольга (2016) WEB-DLRip (сезон 1, серии 1-3 из 20) (обновляемая)
  • Ольга (2017) WEB-DLRip [H.264] (сезон 2, серии 1-5 из 20) (обновляемая)
  • Ольга (2017) WEB-DLRip (сезон 2, серии 1-5 из 20) (обновляемая)


    • Комментарии (0):

      Информация

      Информация

        Посетители, находящиеся в группе Гости, не могут оставлять комментарии в данной новости.

        ↓ Меню




        ↓ Опрос

        Вы добавили сайт в закладки?
        Да
        Нет


        Top 10 за месяц (Фильмы)