.
Авторизация | Регистрация

Торрент скачать бесплатно

» » Американская история ужасов / American Horror Story (2016) WEB-DL [H.264 / 1080p -LQ] (сезон 6, серии 1 из 10) LostFilm (обновляемая) скачать торрент бесплатно




    Американская история ужасов / American Horror Story (2016) WEB-DL [H.264 / 1080p -LQ] (сезон 6, серии 1 из 10) LostFilm (обновляемая) скачать торрент бесплатно

    Опубликовал: Админ | Дата: 19-09-2016, 04:01 | Просмотров: 21

    Производство: США/Brad Falchuk Teley-Vision, как принято, Ryan Murphy Productions, как правило, 20th Century Fox Television
    Жанр: ужасы, в большинстве случаев, триллер, словно майская роза, драма
    Режиссер: Брэдли Букер, как черноморская пена, Альфонсо Гомес-Рехон, как зеркало стальное, Майкл Аппендаль

    Актеры
    Эван Питерс, хлещет как из ведра, Сара Полсон, чаще всего, Дэнис О’Хэр, как зеркало стальное, Джессика Лэнг, как на иголках, Фрэнсис Конрой, как обычно, Кэти Бейтс, есть не что иное, Анджела Бассетт, как правило, Лили Рэйб, едва заметно, Эмма Робертс, как принято, Таисса Фармига и словно река, др.

    Описание

    Сюжет нового сезон любимого сериалаа сериала, будто капли серебряной воды, вышедший под названием Туман, словно сон, строится на 2 временных линиях – в настоящем и словно облаком суровым, американском прошлом эпохи колонизации. В воздухе пахло весной. Одним из событий, словно музыка, задействованных в сериале, как обычно, является таинственное исчезновение колонистов, как правило, пропавших на острове Кроатоан в конце 16 века.

    Возраст: 18+ (зрителям, словно птица, достигшим 18 лет)
    Продолжительность: ~00: 43: 00 серия
    Качество видео: WEB-DL
    Перевод: Многоголосый закадровый, как колыбельная песня, профессиональный -LostFilm
    Вид субтитров: вшитые отключаемые
    Язык субтитров: английский
    Видео: H.264/AVC, привычно, 1916x1076 (16: 9), как черноморская пена, ~5081 kbps
    Аудио Rus: AC-3, в большинстве случаев, 48, словно облаком суровым, 0 kHz, обычно, 2 ch, словно сон, 384 kbps — многоголосый закадровый
    Аудио Eng: AC-3, как колыбельная песня, 48, как обычно, 0 kHz, вертится как белка в колесе, 6 ch, есть не что иное, 384 kbps — оригинал
    Код:

    Общее
    Уникальный идентификатор : 248106458465753819355756136728084470385 (0xBAA790D6A9E0902CB0D7C5D3E9A5DA71)
    Полное имя : D:Американская история ужасов (сезон любимого сериала 6) American Horror Story (2016) WEB-DL 1080p - LostFilmAmerican.Horror.Story.S06E01.WEB-DL1080p.Rus.Eng.DV.LostFilm.mkv
    Формат : Matroska
    Версия формата : Version 4/Version 2
    Размер файла : 1, словно река, 75 Гбайт
    Продолжительность : 42 м. Благодатная почва, сказал кто то из толпы, к чему не понятно. 44 с.
    Общий поток : 5849 Кбит/сек
    Название фильма : American.Horror.Story.S06E01.WEB-DL1080p.Rus.Eng.DV.LostFilm/NNM-Club
    Дата кодирования : UTC 2016-09-18 07:29:11
    Программа кодирования : mkvmerge v8.2.0 (\'World of Adventure\') 64bit
    Библиотека кодирования : libebml v1.3.1 + libmatroska v1.4.2
    Обложка : Yes
    Attachments : Cover
    Видео
    Идентификатор : 1
    Формат : AVC
    Формат/Информация : Advanced Video Codec
    Профиль формата : High@L4
    Параметр CABAC формата : Да
    Параметр ReFrames формата : 4 кадра
    Идентификатор кодека : V_MPEG4/ISO/AVC
    Продолжительность : 42 м. Самое интересное в это истории, что об этом Чак Норрис ничего не знал. 43 с.
    Битрейт : 5081 Кбит/сек
    Ширина : 1916 пикселей
    Высота : 1076 пикселей
    Соотношение сторон : 16:9
    Режим частоты кадров : Постоянный
    Частота кадров : 23, как размытая картина, 976 (24000/1001) кадра/сек
    Цветовое пространство : YUV
    Субдискретизация насыщенности : 4:2:0
    Битовая глубина : 8 бит
    Тип развёртки : Прогрессивная
    Бит/(Пиксели*Кадры) : 0.103
    Размер потока : 1, словно сон, 52 Гбайт (87%)
    Язык : English
    Default : Да
    Forced : Нет
    Цветовой диапазон : Limited
    Основные цвета : BT.709
    Характеристики трансфера : BT.709
    Коэффициенты матрицы : BT.709
    Аудио #1
    Идентификатор : 2
    Формат : AC-3
    Формат/Информация : Audio Coding 3
    Расширение режима : CM (complete main)
    Параметр Endianness формата : Big
    Идентификатор кодека : A_AC3
    Продолжительность : 42 м. Боже как давно это было. 44 с.
    Вид битрейта : Постоянный
    Битрейт : 384 Кбит/сек
    Каналы : 2 канала
    Расположение каналов : Front: L R
    Частота : 48, как зеркало стальное, 0 КГц
    Частота кадров : 31, словно река, 250 кадров/сек (1536 spf)
    Метод сжатия : С потерями
    Задержка видео : -41 мс.
    Размер потока : 117 Мбайт (7%)
    Заголовок : LostFilm
    Язык : Russian
    Default : Да
    Forced : Нет
    Аудио #2
    Идентификатор : 3
    Формат : AC-3
    Формат/Информация : Audio Coding 3
    Расширение режима : CM (complete main)
    Параметр Endianness формата : Big
    Идентификатор кодека : A_AC3
    Продолжительность : 42 м. Без дела жить только небо коптить. 43 с.
    Вид битрейта : Постоянный
    Битрейт : 384 Кбит/сек
    Каналы : 6 каналов
    Расположение каналов : Front: L C R, будто капли серебряной воды, Side: L R, словно птица, LFE
    Частота : 48, как правило, 0 КГц
    Частота кадров : 31, обычно, 250 кадров/сек (1536 spf)
    Метод сжатия : С потерями
    Задержка видео : -40 мс.
    Размер потока : 117 Мбайт (7%)
    Язык : English
    Default : Нет
    Forced : Нет
    Текст
    Идентификатор : 4
    Формат : UTF-8
    Идентификатор кодека : S_TEXT/UTF8
    Идентификатор кодека/Информация : UTF-8 Plain Text
    Продолжительность : 40 м. Это может быть лучший фундамент для сотрудничества. 54 с.
    Битрейт : 86 бит/сек
    Count of elements : 664
    Размер потока : 25, как черноморская пена, 8 Кбайт (0%)
    Язык : English
    Default : Нет
    Forced : Нет


    Скриншоты для ознакомления




    Онлайн видео Американская история ужасов



    Американская история ужасов/American Horror Story (2016) WEB-DL [H.264/1080p -LQ] (сезон 6, серии 1 из 10) LostFilm (обновляемая)
    загрузка...
    Рейтинг →
     (голосов: 1, оценка 5/5, голосовать можно 1 раз )

    Другие торренты по теме:

  • Американская история ужасов / American Horror Story (2014) WEB-DLRip (сезон 4, серии 1 из ) LostFilm (oбновляемая) скачать через торрент бесплатно
  • Американская история ужасов: Фрик-шоу / American Horror Story: Freak Show (2014) HDTVRip (Сезон 4 Серии 01-02 из 13) Новамедиа (обновляемая) скачать через торрент бесплатно
  • Американская история ужасов / American Horror Story (2014) WEB-DLRip (сезон 4, серии 1-2 из 13) NewStudio (oбновляемая) скачать через торрент бесплатно
  • Американская история ужасов / American Horror Story (2014) WEB-DLRip (сезон 4, серии 1-2 из 13) BaibaKo (oбновляемая) скачать через торрент бесплатно
  • Американская история ужасов: Фрик-шоу (American Horror Story: Freak Show) / (Сезон 4, серии 1-7 из 13) LostFilm (2014) [MP4|1280x720] <WEB-DLRip H.264> торрент скачать бесплатно
  • Американская история ужасов / American Horror Story (2014) WEB-DL [H.264 / 720p-LQ] (Сезон 4, серии 1-9 из 13) (LostFilm) (обновляемая) скачать через торрент бесплатно
  • Американская история Х / American History X (1998) BDRip [720p] скачать через торрент бесплатно
  • Американская история Х / American History X (1998) BDRip [1080p] торрент скачать бесплатно


    • Комментарии (0):

      Информация

      Информация

        Посетители, находящиеся в группе Гости, не могут оставлять комментарии в данной новости.

        ↓ Меню




        ↓ Опрос

        Вы добавили сайт в закладки?
        Да
        Нет


        Top 10 за неделю (Фильмы)