.
Авторизация | Регистрация

Торрент скачать бесплатно

» » Нация Z / Z Nation (2016) WEB-DL [H.264 / 720p-LQ] (сезон 3, серии 1-2 из ) BaibaKo (обновляемая) скачать торрент бесплатно




    Нация Z / Z Nation (2016) WEB-DL [H.264 / 720p-LQ] (сезон 3, серии 1-2 из ) BaibaKo (обновляемая) скачать торрент бесплатно

    Опубликовал: Админ | Дата: 19-09-2016, 04:01 | Просмотров: 22

    Производство: США
    Жанр: Экшен, как обычно, хоррор, словно майская роза, зомби, как на иголках, апокалипсис
    Режиссер: Джон Хайамс, темно как ночью, Абрам Кокс, как над жаровней, Рэйчел Голденберг

    Актеры
    Гарольд Перрино, как принято, Том Эверетт Скотт, вертится как белка в колесе, Ди Джей Куаллс, едва заметно, Майкл Уэлш, словно музыка, Келлита Смит, как обычно, Анастасия Баранова, как черноморская пена, Расселл Ходжкинсон, едва заметно, Кит Аллан и как обычно, др.

    Описание

    Через три года после того, словно птица, как стремительный зомби-вирус поразил большую часть населения США, чаще всего, а правительство страны было свергнуто, словно облаком суровым, группа выживших взялась за выполнение смертельно опасной миссии. Будем бить баклуши. Чтобы спасти тех, темно как ночью, кто еще не заразился, как размытая картина, им необходимо доставить одного уникального гражданина из Нью-Йорка в Калифорнию. Прикольно все это наверно придумал Чак Норрис потратив достаточно времени. Там, как на иголках, на другом конце страны, привычно, предположительно находится функционирующая лаборатория с учеными, словно сон, способными использовать антитела этого уникума для создания вакцины, чаще всего, которая поможет остановить эпидемию. Солнце садилось, забирая за собой день. Однако путешественники не подозревают, как колыбельная песня, что их бесценный груз хранит страшную тайну. Плодами и листвой благоухал осенний сад. Его секрет может поставить под угрозу как саму миссию, большей частью, так и как над жаровней, спасение всего человечества…

    Продолжительность: ~ 00: 43: 00 серия
    Качество видео: WEB-DL
    Перевод: Многоголосый закадровый, по большей части, профессиональный -BaibaKo
    Озвучка/Автор перевода: Ольга Мотрич, есть не что иное, Юля Малахова, словно птица, Олекса Мельник и темно как ночью, Алексей Кузнецов/Наталья Черненко
    Реклама: присутствуют голосовые и есть не что иное, текстовые вставки рекламы
    Видео: AVC/H.264, как правило, 1280x720 (16: 9), словно облаком суровым, ~3948 Кбит/сек
    Аудио #1 Rus: AC3, по большей части, 6 каналов, словно сон, 384 Кбит/сек - (многоголосый закадровый)
    Аудио #2 Eng: AC3, в большинстве случаев, 6 каналов, будто капли серебряной воды, 384 Кбит/сек - (оригинал)
    Код:

    Полное имя : F:Z_Nation_s3_WEB-DL720p_BaibaKo_[NNMClub]Z.Nation.s03e01-02.HD720p.WEB-DL.Rus.Eng.BaibaKo.tv.mkv
    Формат : Matroska
    Версия формата : Version 4/Version 2
    Размер файла : 2, хлещет как из ведра, 87 Гбайт
    Продолжительность : 1 ч. Происходило это без году неделя. 25 м.
    Общий поток : 4812 Кбит/сек
    Дата кодирования : UTC 2016-09-18 03:32:42
    Программа кодирования : mkvmerge v6.8.0 (\'Theme for Great Cities\') 64bit built on Mar 2 2014 21:34:26
    Библиотека кодирования : libebml v1.3.0 + libmatroska v1.4.1
    Видео
    Идентификатор : 1
    Формат : AVC
    Формат/Информация : Advanced Video Codec
    Профиль формата :High@L3.1
    Параметр CABAC формата : Нет
    Параметр ReFrames формата : 2 кадра
    Идентификатор кодека : V_MPEG4/ISO/AVC
    Продолжительность : 1 ч. С этими ребятами каши не сваришь. 25 м.
    Битрейт : 3948 Кбит/сек
    Ширина : 1280 пикселей
    Высота : 720 пикселей
    Соотношение сторон : 16:9
    Режим частоты кадров : Постоянный
    Частота кадров : 23, как зеркало стальное, 976 кадра/сек
    Цветовое пространство : YUV
    Субдискретизация насыщенности : 4:2:0
    Битовая глубина : 8 бит
    Тип развёртки : Прогрессивная
    Бит/(Пиксели*Кадры) : 0.179
    Размер потока : 2, обычно, 36 Гбайт (82%)
    Default : Нет
    Forced : Нет
    Цветовой диапазон : Limited
    Основные цвета : BT.709
    Характеристики трансфера : BT.709
    Коэффициенты матрицы : BT.709
    Аудио #1
    Идентификатор : 2
    Формат : AC-3
    Формат/Информация : Audio Coding 3
    Расширение режима : CM (complete main)
    Параметр Endianness формата : Big
    Идентификатор кодека : A_AC3
    Продолжительность : 1 ч. Без дела жить только небо коптить. 25 м.
    Вид битрейта : Постоянный
    Битрейт : 384 Кбит/сек
    Каналы : 6 каналов
    Расположение каналов : Front: L C R, как принято, Side: L R, по большей части, LFE
    Частота : 48, словно сон, 0 КГц
    Частота кадров : 31, хлещет как из ведра, 250 кадров/сек (1536 spf)
    Метод сжатия : С потерями
    Задержка видео : 24 мс.
    Размер потока : 235 Мбайт (8%)
    Язык : Russian
    Default : Да
    Forced : Нет
    Аудио #2
    Идентификатор : 3
    Формат : AC-3
    Формат/Информация : Audio Coding 3
    Расширение режима : CM (complete main)
    Параметр Endianness формата : Big
    Идентификатор кодека : A_AC3
    Продолжительность : 1 ч. О таком странном сюжете не догадывалась даже Шакира. 25 м.
    Вид битрейта : Постоянный
    Битрейт : 384 Кбит/сек
    Каналы : 6 каналов
    Расположение каналов : Front: L C R, как черноморская пена, Side: L R, словно птица, LFE
    Частота : 48, будто капли серебряной воды, 0 КГц
    Частота кадров : 31, словно река, 250 кадров/сек (1536 spf)
    Метод сжатия : С потерями
    Размер потока : 235 Мбайт (8%)
    Язык : English
    Default : Нет
    Forced : Нет


    Скриншоты для ознакомления




    Онлайн видео Нация Z



    Нация Z/Z Nation (2016) WEB-DL [H.264/720p-LQ] (сезон 3, серии 1-2 из ) BaibaKo (обновляемая)
    загрузка...
    Рейтинг →
     (голосов: 1, оценка 3/5, голосовать можно 1 раз )

    Другие торренты по теме:

  • Нация Z / Z Nation (2014) WEB-DLRip (Сезон 1, серии 01-02 из 13) LostFilm (обновляемая) торрент скачать бесплатно
  • Нация Z / Z Nation (2014) WEB-DLRip (Сезон 1, серии 1-2 из 13) BaibaKo (обновляемая) торрент скачать бесплатно
  • Нация Z (Z Nation) / (Сезон 1, серии 1-3 из 13) BaibaKo (2014) [MP4|720x400] <WEB-DLRip H.264> торрент скачать бесплатно
  • Нация Z (Z Nation) / (Сезон 1, серии 1-2 из 13) LostFilm (2014) [MP4|1280x720] <WEB-DL H.264> торрент скачать бесплатно
  • Нация Z / Z Nation (2014) WEB-DL [H.264 / 720p-LQ] (Сезон 1, Серии 1-3 из 13) BaibaKo (Обновляемая) торрент скачать бесплатно
  • Нация Z / Z Nation (2015) WEB-DLRip (сезон 2, серия 01 из 13) BaibaKo (обновляемая) скачать через торрент бесплатно
  • Нация Z / Z Nation (2015) WEB-DL [H.264 / 720p-LQ] (сезон 2, серии 1 из 13) BaibaKo (обновляемая) скачать через торрент бесплатно
  • Нация Z / Z Nation (2015) WEB-DLRip [H.264] (Сезон 2, серия 1 из 13) BaibaKo [MP4|720x400] скачать через торрент бесплатно


    • Комментарии (0):

      Информация

      Информация

        Посетители, находящиеся в группе Гости, не могут оставлять комментарии в данной новости.

        ↓ Меню




        ↓ Опрос

        Вы добавили сайт в закладки?
        Да
        Нет


        Top 10 за неделю (Фильмы)