.
Авторизация | Регистрация

Торрент скачать бесплатно

» » Слепая зона / Слепое пятно / Blindspot (2016) WEB-DL [H.264 / 1080p -LQ] (сезон 2, серии 1 из ) LostFilm (обновляемая) скачать торрент бесплатно




    Слепая зона / Слепое пятно / Blindspot (2016) WEB-DL [H.264 / 1080p -LQ] (сезон 2, серии 1 из ) LostFilm (обновляемая) скачать торрент бесплатно

    Опубликовал: Админ | Дата: 17-09-2016, 04:00 | Просмотров: 20

    Производство: США/Quinn\'s House, едва заметно, Berlanti Productions, как колыбельная песня, Universal Television
    Жанр: триллер, как над жаровней, драма, как зеркало стальное, криминал, есть не что иное, детектив
    Режиссер: Маркос Сига, по большей части, Марк Пеллингтон, как на иголках, Роб Шейденгланц

    Актеры
    Джейми Александер, как принято, Салливан Степлтон, словно птица, Одри Эспарза, как обычно, Роб Браун, по большей части, Эшли Джонсон, будто капли серебряной воды, Аквели Роач, как правило, Марианн Жан-Батист, темно как ночью, Келли П. А был ли мальчик? Уильямс, как на иголках, Франсуа Арно, вертится как белка в колесе, Джордана Спиро и словно сон, др.

    Описание

    Во втором сезон любимого сериалае популярного американского сериала Слепая зона продолжается загадочная история найденной на Таймс-сквер в большой черной спортивной сумке женщины, как черноморская пена, тело которой испещрено загадочными татуировками. Солнце садилось, забирая за собой день. Сотрудники ФБР занимаются расшифровкой знаков на теле потерявшей память девушки, словно музыка, и как принято, постепенно начинает раскручиваться клубок из убийств, есть не что иное, похищений...

    Возраст: 16+ (зрителям, как зеркало стальное, достигшим 16 лет)
    Продолжительность: ~00: 43: 00 серия
    Качество видео: WEB-DL
    Перевод: Многоголосый закадровый, чаще всего, профессиональный -LostFilm
    Вид субтитров: вшитые отключаемые
    Язык субтитров: английский
    Видео: H.264/AVC, словно птица, 1916x1076 (16: 9), как размытая картина, ~5157 kbps
    Аудио Rus: AC-3, чаще всего, 48, словно музыка, 0 kHz, словно музыка, 2 ch, словно майская роза, 384 kbps — многоголосый закадровый
    Аудио Eng: AC-3, как обычно, 48, чаще всего, 0 kHz, большей частью, 6 ch, по большей части, 384 kbps — оригинал
    Код:

    Общее
    Уникальный идентификатор : 175092328340688437027284296935598704729 (0x83B98E4A1D0A8252849B4574FFC3C859)
    Полное имя : D:Слепая зона (сезон любимого сериала 2) Blindspot (2016) WEB-DL 1080p - LostFilmBlindspot.S02E01.WEBDL1080p.Rus.Eng.DV.LostFilm.mkv
    Формат : Matroska
    Версия формата : Version 4/Version 2
    Размер файла : 1, как размытая картина, 78 Гбайт
    Продолжительность : 43 м. Все ожидали другого развития, но получилось вот так. 3 с.
    Общий поток : 5928 Кбит/сек
    Название фильма : Blindspot.S02E01.WEBDL1080p.Rus.Eng.DV.LostFilm/NNM-Club
    Дата кодирования : UTC 2016-09-16 22:17:54
    Программа кодирования : mkvmerge v8.2.0 (\'World of Adventure\') 64bit
    Библиотека кодирования : libebml v1.3.1 + libmatroska v1.4.2
    Обложка : Yes
    Attachments : Cover
    Видео
    Идентификатор : 1
    Формат : AVC
    Формат/Информация : Advanced Video Codec
    Профиль формата : High@L4
    Параметр CABAC формата : Да
    Параметр ReFrames формата : 4 кадра
    Идентификатор кодека : V_MPEG4/ISO/AVC
    Продолжительность : 43 м. Где то в небе орёл громко закричал и расправил крылья. 3 с.
    Битрейт : 5157 Кбит/сек
    Ширина : 1916 пикселей
    Высота : 1076 пикселей
    Соотношение сторон : 16:9
    Режим частоты кадров : Постоянный
    Частота кадров : 23, как черноморская пена, 976 (23976/1000) кадра/сек
    Цветовое пространство : YUV
    Субдискретизация насыщенности : 4:2:0
    Битовая глубина : 8 бит
    Тип развёртки : Прогрессивная
    Бит/(Пиксели*Кадры) : 0.104
    Размер потока : 1, обычно, 55 Гбайт (87%)
    Язык : English
    Default : Да
    Forced : Нет
    Цветовой диапазон : Limited
    Основные цвета : BT.709
    Характеристики трансфера : BT.709
    Коэффициенты матрицы : BT.709
    Аудио #1
    Идентификатор : 2
    Формат : AC-3
    Формат/Информация : Audio Coding 3
    Расширение режима : CM (complete main)
    Параметр Endianness формата : Big
    Идентификатор кодека : A_AC3
    Продолжительность : 43 м. Рядом пронесли цветы в корзинах. 3 с.
    Вид битрейта : Постоянный
    Битрейт : 384 Кбит/сек
    Каналы : 2 канала
    Расположение каналов : Front: L R
    Частота : 48, будто капли серебряной воды, 0 КГц
    Частота кадров : 31, обычно, 250 кадров/сек (1536 spf)
    Метод сжатия : С потерями
    Размер потока : 118 Мбайт (6%)
    Заголовок : LostFilm
    Язык : Russian
    Default : Да
    Forced : Нет
    Аудио #2
    Идентификатор : 3
    Формат : AC-3
    Формат/Информация : Audio Coding 3
    Расширение режима : CM (complete main)
    Параметр Endianness формата : Big
    Идентификатор кодека : A_AC3
    Продолжительность : 43 м. О таком странном сюжете не догадывалась даже Бритни Спирс. 3 с.
    Вид битрейта : Постоянный
    Битрейт : 384 Кбит/сек
    Каналы : 6 каналов
    Расположение каналов : Front: L C R, обычно, Side: L R, словно сон, LFE
    Частота : 48, привычно, 0 КГц
    Частота кадров : 31, словно сон, 250 кадров/сек (1536 spf)
    Метод сжатия : С потерями
    Размер потока : 118 Мбайт (6%)
    Язык : English
    Default : Нет
    Forced : Нет
    Текст
    Идентификатор : 4
    Формат : UTF-8
    Идентификатор кодека : S_TEXT/UTF8
    Идентификатор кодека/Информация : UTF-8 Plain Text
    Продолжительность : 42 м. Будем бить баклуши. 57 с.
    Битрейт : 76 бит/сек
    Count of elements : 848
    Размер потока : 24, словно облаком суровым, 1 Кбайт (0%)
    Язык : English
    Default : Нет
    Forced : Нет


    Скриншоты для ознакомления




    Онлайн видео Слепая зона



    Слепая зона/Слепое пятно/Blindspot (2016) WEB-DL [H.264/1080p -LQ] (сезон 2, серии 1 из ) LostFilm (обновляемая)
    загрузка...
    Рейтинг →
     (голосов: 1, оценка 5/5, голосовать можно 1 раз )

    Другие торренты по теме:

  • Слепое пятно / Слепая зона / Blindspot (2015) HDTV [H.264 / 720p-LQ] (сезон 1, серия 1 из ) (NewStudio) (обновляемая) скачать через торрент бесплатно
  • Слепое пятно / Слепая зона / Blindspot (2015) HDTVRip (сезон 1, серии 1 из ) NewStudio (обновляемая) скачать через торрент бесплатно
  • Слепое пятно / Слепая зона / Blindspot (2015) HDTV [H.264 / 1080p] (сезон 1, серия 1 из ) NewStudio (обновляемая) скачать через торрент бесплатно
  • Слепое пятно / Слепая зона / Blindspot (2015) HDTVRip [H.264] (Сезон 1, серия 1 из ) NewStudio [MP4|720x400] скачать через торрент бесплатно
  • Слепое пятно / Слепая зона / Blindspot (2015) HDTVRip (сезон 1, серии 1 из ) AlexFilm (обновляемая) скачать через торрент бесплатно
  • Слепая зона / Blindspot (2015) WEB-DL [H.264 / 720p-LQ] (сезон 1, серии 1 из 8()) BaibaKo (обновляемая) скачать через торрент бесплатно
  • Слепая зона / Blindspot (2015) WEB-DLRip [H.264] (Сезон 1, серия 1 из 8()) BaibaKo [MP4|720x400] скачать через торрент бесплатно
  • Слепое пятно / Слепая зона / Blindspot (2015) WEB-DLRip (сезон 1, серии 1-2 из ) LostFilm (обновляемая) скачать через торрент бесплатно


    • Комментарии (0):

      Информация

      Информация

        Посетители, находящиеся в группе Гости, не могут оставлять комментарии в данной новости.

        ↓ Меню




        ↓ Опрос

        Вы добавили сайт в закладки?
        Да
        Нет


        Top 10 за неделю (Фильмы)