.
Авторизация | Регистрация

Торрент скачать бесплатно

» » Слепое пятно / Слепая зона / Blindspot (2016) WEBRip [H.264 / 720p-LQ] (сезон 2, серии 1 из ) BaibaKo (обновляемая) скачать торрент бесплатно




    Слепое пятно / Слепая зона / Blindspot (2016) WEBRip [H.264 / 720p-LQ] (сезон 2, серии 1 из ) BaibaKo (обновляемая) скачать торрент бесплатно

    Опубликовал: Админ | Дата: 17-09-2016, 04:00 | Просмотров: 11

    Производство: США
    Жанр: триллер, чаще всего, драма, как зеркало стальное, детектив
    Режиссер: Марк Пеллингтон

    Актеры
    Джейми Александер, темно как ночью, Салливан Степлтон, в большинстве случаев, Одри Эспарза, едва заметно, Роб Браун, словно сон, Марианн Жан-Батист, словно река, Аквели Роач и хлещет как из ведра, др.

    Описание

    В центре сюжета находится потерявшая память девушка, словно река, которая оказывается в центре расследования после того, как обычно, как смогла выбраться из брезентового мешка в самом центре Нью-Йорк Сити на Таймс Сквер. Я например по сценарию ожидал большой напряженности. Не имея ни малейшего представления о том, будто капли серебряной воды, кто она такая, обычно, девушка не знает, вертится как белка в колесе, что обозначают многочисленные загадочные татуировки, как черноморская пена, которыми покрыто все ее тело. Все это как снег на голову, во все лопатки. Когда выясняется, как принято, что татуировки являются чем-то вроде дорожной карты, словно птица, к делу подключается ФБР.

    Возраст: 16+ (зрителям, как зеркало стальное, достигшим 16 лет)
    Продолжительность: ~00: 43: 00 серия
    Качество видео: WEBRip
    Перевод: Многоголосый закадровый, словно музыка, профессиональный -BaibaKo
    Озвучка/Автор перевода: Татьяна Оболевич, темно как ночью, Юля Малахова, как размытая картина, Сергей Корчак и словно река, Олекса Мельник/Мария Назарко и вертится как белка в колесе, Анна Макаренко
    Реклама: присутствуют голосовые и есть не что иное, текстовые вставки рекламы
    Видео: AVC/H.264, есть не что иное, 1280x720 (16: 9), большей частью, ~2916 Кбит/сек
    Аудио #1 Rus: AC3, как правило, 6 каналов, словно птица, 640 Кбит/сек - (многоголосый закадровый)
    Аудио #2 Eng: AC3, есть не что иное, 6 каналов, словно птица, 640 Кбит/сек - (оригинал)
    Код:

    Полное имя : F:Blindspot_s2_WEB-DL720p_BaibaKo_[NNMClub]Blindspot.s02e01.HD720p.WEBRip.Rus.Eng.BaibaKo.tv.mkv
    Формат : Matroska
    Версия формата : Version 4/Version 2
    Размер файла : 1, большей частью, 29 Гбайт
    Продолжительность : 43 м.
    Режим общего битрейта : Переменный
    Общий поток : 4281 Кбит/сек
    Дата кодирования : UTC 2016-09-16 17:34:23
    Программа кодирования : mkvmerge v6.8.0 (\'Theme for Great Cities\') 64bit built on Mar 2 2014 21:34:26
    Библиотека кодирования : libebml v1.3.0 + libmatroska v1.4.1
    Видео
    Идентификатор : 1
    Формат : AVC
    Формат/Информация : Advanced Video Codec
    Профиль формата :High@L3.1
    Параметр CABAC формата : Да
    Параметр ReFrames формата : 5 кадров
    Идентификатор кодека : V_MPEG4/ISO/AVC
    Продолжительность : 43 м.
    Вид битрейта : Переменный
    Битрейт : 2916 Кбит/сек
    Максимальный битрейт : 4500 Кбит/сек
    Ширина : 1280 пикселей
    Высота : 720 пикселей
    Соотношение сторон : 16:9
    Режим частоты кадров : Постоянный
    Частота кадров : 23, большей частью, 976 (24000/1001) кадра/сек
    Цветовое пространство : YUV
    Субдискретизация насыщенности : 4:2:0
    Битовая глубина : 8 бит
    Тип развёртки : Прогрессивная
    Бит/(Пиксели*Кадры) : 0.132
    Размер потока : 898 Мбайт (68%)
    Default : Нет
    Forced : Нет
    Цветовой диапазон : Limited
    Основные цвета : BT.709
    Характеристики трансфера : BT.709
    Коэффициенты матрицы : BT.709
    Аудио #1
    Идентификатор : 2
    Формат : AC-3
    Формат/Информация : Audio Coding 3
    Расширение режима : CM (complete main)
    Параметр Endianness формата : Big
    Идентификатор кодека : A_AC3
    Продолжительность : 43 м.
    Вид битрейта : Постоянный
    Битрейт : 640 Кбит/сек
    Каналы : 6 каналов
    Расположение каналов : Front: L C R, по большей части, Side: L R, как черноморская пена, LFE
    Частота : 48, словно река, 0 КГц
    Частота кадров : 31, как над жаровней, 250 кадров/сек (1536 spf)
    Метод сжатия : С потерями
    Задержка видео : 23 мс.
    Размер потока : 197 Мбайт (15%)
    Язык : Russian
    Default : Да
    Forced : Нет
    Аудио #2
    Идентификатор : 3
    Формат : AC-3
    Формат/Информация : Audio Coding 3
    Расширение режима : CM (complete main)
    Параметр Endianness формата : Big
    Идентификатор кодека : A_AC3
    Продолжительность : 43 м.
    Вид битрейта : Постоянный
    Битрейт : 640 Кбит/сек
    Каналы : 6 каналов
    Расположение каналов : Front: L C R, как обычно, Side: L R, будто капли серебряной воды, LFE
    Частота : 48, как обычно, 0 КГц
    Частота кадров : 31, словно сон, 250 кадров/сек (1536 spf)
    Метод сжатия : С потерями
    Задержка видео : 32 мс.
    Размер потока : 197 Мбайт (15%)
    Язык : English
    Default : Нет
    Forced : Нет


    Скриншоты для ознакомления




    Онлайн видео Слепое пятно



    Слепое пятно/Слепая зона/Blindspot (2016) WEBRip [H.264/720p-LQ] (сезон 2, серии 1 из ) BaibaKo (обновляемая)
    загрузка...
    Рейтинг →
     (голосов: 1, оценка 4/5, голосовать можно 1 раз )

    Другие торренты по теме:

  • Слепое пятно / Слепая зона / Blindspot (2015) HDTV [H.264 / 720p-LQ] (сезон 1, серия 1 из ) (NewStudio) (обновляемая) скачать через торрент бесплатно
  • Слепое пятно / Слепая зона / Blindspot (2015) HDTVRip (сезон 1, серии 1 из ) NewStudio (обновляемая) скачать через торрент бесплатно
  • Слепое пятно / Слепая зона / Blindspot (2015) HDTV [H.264 / 1080p] (сезон 1, серия 1 из ) NewStudio (обновляемая) скачать через торрент бесплатно
  • Слепое пятно / Слепая зона / Blindspot (2015) HDTVRip [H.264] (Сезон 1, серия 1 из ) NewStudio [MP4|720x400] скачать через торрент бесплатно
  • Слепое пятно / Слепая зона / Blindspot (2015) HDTVRip (сезон 1, серии 1 из ) AlexFilm (обновляемая) скачать через торрент бесплатно
  • Слепое пятно / Blindspot (2015) HDTVRip [H.264] (Сезон 1, серия 1 из 8()) AlexFilm [MP4|720x400] скачать через торрент бесплатно
  • Слепое пятно / Слепая зона / Blindspot (2015) WEB-DLRip (сезон 1, серии 1-2 из ) LostFilm (обновляемая) скачать через торрент бесплатно
  • Слепое пятно / Blindspot (2015) WEB-DLRip [H.264] (Сезон 1, серии 1-4 из 22) LostFilm [MP4|1280x718] скачать через торрент бесплатно


    • Комментарии (0):

      Информация

      Информация

        Посетители, находящиеся в группе Гости, не могут оставлять комментарии в данной новости.

        ↓ Меню




        ↓ Опрос

        Вы добавили сайт в закладки?
        Да
        Нет


        Top 10 за неделю (Фильмы)