.
Авторизация | Регистрация
Хочешь лучшие торренты? Добавь свой email!
Добавить

Торрент скачать бесплатно

» » Мамочки (2016) WEB-DLRip (сезон 2, серии 1-5 из 20) (обновляемая) торрент скачать бесплатно




    Мамочки (2016) WEB-DLRip (сезон 2, серии 1-5 из 20) (обновляемая) торрент скачать бесплатно

    Опубликовал: Админ | Дата: 17-09-2016, 04:00 | Просмотров: 32

    Производство: Россия/Sisters Production, IQ Production, Yellow, Black White
    Жанр: комедия
    Режиссер: Валерия Ивановская, Александр Богданенко

    Актеры
    Елена Николаева, Александра Булычёва, Светлана Колпакова, Сергей Лавыгин, Владимир Жеребцов, Юлиана Бажанова, Виктор Добронравов, Ксения Зуева, Анна Потебня, Константин Соловьёви др.

    Описание

    Мамочки - это комедия о трёх подругах и о том, как резко меняется жизнь после тридцати, когда на смену ночным вечеринкам приходят подгузники. Аня — новоиспечённая мама десятимесячного сына, которая только начинает сталкиваться с проблемами материнства и супружеской жизни. Иногда, кажется, что если бы не советы подруг, она бы сошла с ума от беспомощности. Юля — мама со стажем. Мать троих детей, которую настолько сильно поглощает семейный быт, что на себя давно нет ни сил, ни времени. Считает, что знает абсолютно всё о детях, мужчинах и отношениях. Вика — одинокая девушка в поиске.

    Возраст: 16+ (зрителям, достигшим 16 лет)
    Релиз от: ivandubskoj
    Продолжительность: ~ 00: 25: 00 серия
    Качество видео: WEB-DLRip
    Видео: XviD, 704x400 (16: 9), ~ 1800 Кбит/с
    Аудио: MP3, 48000 Гц, 2 канала, 128 Кбит/с
    Код:
    General
    Complete name : Mamochki.s02.e02.2016.WEB-DLRip.avi
    Format : AVI
    Format/Info : Audio Video Interleave
    File size : 350 MiB
    Duration : 24mn 36s
    Overall bit rate : 1 989 Kbps
    Writing application : VirtualDubMod 1.5.10.3 |www.virtualdub-fr.org|| (build 2550/release)
    Writing library : VirtualDubMod build 2550/release
    Video
    ID : 0
    Format : MPEG-4 Visual
    Format profile : Advanced Simple@L5
    Format settings, BVOP : 1
    Format settings, QPel : No
    Format settings, GMC : No warppoints
    Format settings, Matrix : Custom
    Codec ID : XVID
    Codec ID/Hint : XviD
    Duration : 24mn 36s
    Bit rate : 1 851 Kbps
    Width : 704 pixels
    Height : 400 pixels
    Display aspect ratio : 16:9
    Frame rate : 25.000 fps
    Color space : YUV
    Chroma subsampling : 4:2:0
    Bit depth : 8 bits
    Scan type : Progressive
    Compression mode : Lossy
    Bits/(Pixel*Frame) : 0.263
    Stream size : 326 MiB (93%)
    Writing library : XviD 73
    Audio
    ID : 1
    Format : MPEG Audio
    Format version : Version 1
    Format profile : Layer 3
    Codec ID : 55
    Codec ID/Hint : MP3
    Duration : 24mn 36s
    Bit rate mode : Constant
    Bit rate : 128 Kbps
    Channel(s) : 2 channels
    Sampling rate : 48.0 KHz
    Compression mode : Lossy
    Stream size : 22.5 MiB (6%)
    Alignment : Aligned on interleaves
    Interleave, duration : 40 ms (1.00 video frame)
    Interleave, preload duration : 504 ms
    Writing library : LAME3.99r
    Encoding settings : -m s -V 4 -q 0 -lowpass 17 -b 128


    Скриншоты для ознакомления




    Онлайн видео Мамочки (2016) WEB



    Мамочки (2016) WEB-DLRip (сезон 2, серии 1-5 из 20) (обновляемая)
    загрузка...
    Рейтинг →
     (голосов: 1, оценка 4/5, голосовать можно 1 раз )

    Другие торренты по теме:

  • Мамочки (2015) WEB-DLRip [H.264 / 1080p-LQ] (серии 1-2 из 20) (обновляемая) скачать через торрент бесплатно
  • Мамочки (2015) WEB-DLRip (серии 1-2 из 20) (обновляемая) скачать через торрент бесплатно
  • Мамочки (2015) WEB-DLRip [H.264 / 720p-LQ] (серии 1-2 из 20) (обновляемая) скачать через торрент бесплатно
  • Мамочки (2016) WEB-DLRip [H.264] (сезон 2, серии 1 из 20) (обновляемая)
  • Мамочки (2016) WEB-DLRip [H.264 / 1080p-LQ] (сезон 2, серии 1-4 из 20) (обновляемая)
  • Мамочки (2017) WEB-DLRip [H.264 / 720p] (сезон 3, серии 1-2 из 20) (обновляемая)
  • Мамочки (2017) WEB-DLRip (сезон 3, серии 1 из 20) (обновляемая)
  • Ой, мамочки / Telle mere, telle fille (2017) WEB-DLRip [MVO]


    • Комментарии (0):

      Информация

      Информация

        Посетители, находящиеся в группе Гости, не могут оставлять комментарии в данной новости.

        ↓ Меню




        ↓ Опрос

        Вы добавили сайт в закладки?
        Да
        Нет


        Top 10 за месяц (Фильмы)