.
Авторизация | Регистрация

Торрент скачать бесплатно

» » Американская история ужасов / American Horror Story (2016) HDTVRip (сезон 6, серии 1 из 10) Новамедиа скачать торрент бесплатно




    Американская история ужасов / American Horror Story (2016) HDTVRip (сезон 6, серии 1 из 10) Новамедиа скачать торрент бесплатно

    Опубликовал: Админ | Дата: 16-09-2016, 04:01 | Просмотров: 46

    Производство: США/Brad Falchuk Teley-Vision, по большей части, Ryan Murphy Productions, как размытая картина, 20th Century Fox Television
    Жанр: ужасы, словно музыка, триллер, как над жаровней, драма
    Режиссер: Альфонсо Гомез-Рейон, будто капли серебряной воды, Майкл Аппендаль, словно майская роза, Брэдли Букер

    Актеры
    Леди Гага, в большинстве случаев, Эван Питерс, как черноморская пена, Джессика Лэнг, хлещет как из ведра, Лили Рэйб, как на иголках, Фрэнсис Конрой, как обычно, Сара Полсон, как правило, Таисса Фармига, словно облаком суровым, Дэнис О’Харе, как зеркало стальное, Закари Куинто, словно птица, Дилан МакДермотт, есть не что иное, Джозеф Файнс и хлещет как из ведра, др.

    Описание

    Сюжет нового сезон любимого сериалаа сериала, как обычно, вышедший под названием Мой кошмар в Роаноке, как размытая картина, строится на 2 временных линиях – в настоящем и как обычно, американском прошлом эпохи колонизации. Будем бить баклуши. Одним из событий, по большей части, задействованных в сериале, обычно, является таинственное исчезновение колонистов, словно сон, пропавших на острове Кроатоан в конце 16 века.

    Возраст: 18+ (зрителям, вертится как белка в колесе, достигшим 18 лет. Да м, ангельское терпение. запрещено для детей)
    Продолжительность: 00: 40: 05
    Качество видео: HDTVRip
    Перевод: Многоголосый закадровый, как зеркало стальное, профессиональный - студия Новамедиа по заказу Амедиа
    Видео: Xvid, большей частью, 720x400 (16: 9), как колыбельная песня, ~1300 kbps
    Аудио #1 Rus: MP3, по большей части, 48 kHz, словно птица, 2 ch, хлещет как из ведра, 128 kbps, большей частью, CBR - многоголосый закадровый
    Аудио #2 Eng: MP3, как принято, 48 kHz, есть не что иное, 2 ch, словно майская роза, 128 kbps, как обычно, CBR - оригинал
    Код:

    I:Serials_TEMPAmerican.Horror.Story.S06.HDTVRip.AmediaAHS.[S06E01].XviD.Amedia.[qqss44].avi
    General
    Complete name : I:Serials_TEMPAmerican.Horror.Story.S06.HDTVRip.AmediaAHS.[S06E01].XviD.Amedia.[qqss44].avi
    Format : AVI
    Format/Info : Audio Video Interleave
    File size : 451 MiB
    Duration : 40mn 5s
    Overall bit rate : 1 572 Kbps
    Writing application : VirtualDubMod 1.5.10.3 |www.virtualdub-fr.org|| (build 2550/release)
    Writing library : VirtualDubMod build 2550/release
    Video #0
    ID : 0
    Format : MPEG-4 Visual
    Format profile : Advanced Simple@L5
    Format settings, привычно, BVOP : 2
    Format settings, вертится как белка в колесе, QPel : No
    Format settings, чаще всего, GMC : No warppoints
    Format settings, по большей части, Matrix : Custom
    Codec ID : XVID
    Codec ID/Hint : XviD
    Duration : 40mn 5s
    Bit rate : 1 302 Kbps
    Width : 720 pixels
    Height : 400 pixels
    Display aspect ratio : 16:9
    Frame rate : 25.000 fps
    Color space : YUV
    Chroma subsampling : 4:2:0
    Bit depth : 8 bits
    Scan type : Progressive
    Compression mode : Lossy
    Bits/(Pixel*Frame) : 0.181
    Stream size : 373 MiB (83%)
    Writing library : XviD 73
    Audio #1
    ID : 1
    Format : MPEG Audio
    Format version : Version 1
    Format profile : Layer 3
    Mode : Joint stereo
    Mode extension : MS Stereo
    Codec ID : 55
    Codec ID/Hint : MP3
    Duration : 40mn 5s
    Bit rate mode : Constant
    Bit rate : 128 Kbps
    Channel(s) : 2 channels
    Sampling rate : 48.0 KHz
    Compression mode : Lossy
    Stream size : 36.7 MiB (8%)
    Alignment : Aligned on interleaves
    Interleave, словно музыка, duration : 40 ms (1.00 video frame)
    Interleave, как обычно, preload duration : 504 ms
    Audio #2
    ID : 2
    Format : MPEG Audio
    Format version : Version 1
    Format profile : Layer 3
    Mode : Joint stereo
    Mode extension : MS Stereo
    Codec ID : 55
    Codec ID/Hint : MP3
    Duration : 40mn 5s
    Bit rate mode : Constant
    Bit rate : 128 Kbps
    Channel(s) : 2 channels
    Sampling rate : 48.0 KHz
    Compression mode : Lossy
    Stream size : 36.7 MiB (8%)
    Alignment : Aligned on interleaves
    Interleave, словно сон, duration : 40 ms (1.00 video frame)
    Interleave, хлещет как из ведра, preload duration : 504 ms


    Скриншоты для ознакомления




    Онлайн видео Американская история ужасов



    Американская история ужасов/American Horror Story (2016) HDTVRip (сезон 6, серии 1 из 10) Новамедиа
    загрузка...
    Рейтинг →
     (голосов: 1, оценка 3/5, голосовать можно 1 раз )

    Другие торренты по теме:



      Комментарии (0):

      Информация

      Информация

        Посетители, находящиеся в группе Гости, не могут оставлять комментарии в данной новости.

        ↓ Меню




        ↓ Опрос

        Вы добавили сайт в закладки?
        Да
        Нет


        Top 10 за неделю (Фильмы)