.
Авторизация | Регистрация
Хочешь лучшие торренты? Добавь свой email!
Добавить

Торрент скачать бесплатно

» » Наемник Куорри / Карьер / Quarry (2016) HDTVRip [H.264 / 720p -LQ] (сезон 1, серии 1 из 8) NewStudio (обновляемая) скачать торрент бесплатно




    Наемник Куорри / Карьер / Quarry (2016) HDTVRip [H.264 / 720p -LQ] (сезон 1, серии 1 из 8) NewStudio (обновляемая) скачать торрент бесплатно

    Опубликовал: Админ | Дата: 16-09-2016, 04:01 | Просмотров: 85

    Производство: США/NightSky Productions
    Жанр: драма
    Режиссер: Грег Яйтанс, как размытая картина, Джон Хиллкоут

    Актеры
    Логан Маршалл-Грин, хлещет как из ведра, Джоди Бальфур, как черноморская пена, Питер Муллан, словно птица, Никки Амука-Бёрд, большей частью, Дэймон Херриман, по большей части, Эдоардо Баллерини, привычно, Хлоя Элиз, вертится как белка в колесе, Джош Рэндэлл, привычно, Мустафа Жакир, привычно, Джошуа Дж. Как для меня не ожиданный поворот событий. Уильямс и есть не что иное, др.

    Описание

    Дело происходит в 1973 году. О таком странном сюжете не догадывалась даже ВиаГра. Снайпер Куорри возвращается из третьей военной командировки во Вьетнам и как колыбельная песня, обнаруживает, как над жаровней, что люди не видят в нём героя, как обычно, скорее демонизируя образ американского солдата, словно облаком суровым, а старые друзья так и как на иголках, вовсе от него отвернулись. Турция это южная страна, сказал кто-то. От разочарования он подаётся в разветвлённую сеть наёмных убийц и словно птица, коррупционеров, как колыбельная песня, действующую на всей протяжённости Миссисипи.

    Дата мировой премьеры: 9 сентября 2016
    Продолжительность: ~01: 16: 00 серия
    Качество видео: HDTVRip
    Перевод: Многоголосый закадровый, как принято, профессиональный -NewStudio (ненормативная лексика)
    Автор перевода: Алексей Матвеев
    Вид субтитров: вшитые отключаемые (форсированные)
    Язык субтитров: русский
    Внимание! Присутствует ненорматианая лексика.
    Видео: H.264/AVC, словно майская роза, 1280x718 (16: 9), как принято, ~2450 kbps
    Аудио Rus: AC-3, как обычно, 48, словно сон, 0 kHz, темно как ночью, 6 ch, обычно, 384 kbps — многоголосый закадровый
    Аудио Eng: AC-3, как на иголках, 48, чаще всего, 0 kHz, в большинстве случаев, 6 ch, как зеркало стальное, 384 kbps — оригинал
    Код:

    Общее
    Уникальный идентификатор : 205838715619007922140749400144708192155 (0x9ADB1838861B702BAE86B9EA81E5479B)
    Полное имя : D:Наемник Куорри (сезон любимого сериала 1) Quarry (2016) HDTVRip 720p - NewStudioQuarry.S01E01.HDTVRip.720p.Rus.Eng.DV.NewStudio.mkv
    Формат : Matroska
    Версия формата : Version 4/Version 2
    Размер файла : 1, как колыбельная песня, 71 Гбайт
    Продолжительность : 1 ч. А был ли мальчик? 15 м.
    Общий поток : 3219 Кбит/сек
    Название фильма : Quarry.S01E01.HDTVRip.720p.Rus.Eng.DV.NewStudio/NNM-Club
    Дата кодирования : UTC 2016-09-15 15:41:03
    Программа кодирования : mkvmerge v8.2.0 (\'World of Adventure\') 64bit
    Библиотека кодирования : libebml v1.3.1 + libmatroska v1.4.2
    Обложка : Yes
    Attachments : Cover
    Видео
    Идентификатор : 1
    Формат : AVC
    Формат/Информация : Advanced Video Codec
    Профиль формата :High@L4.1
    Параметр CABAC формата : Да
    Параметр ReFrames формата : 5 кадров
    Идентификатор кодека : V_MPEG4/ISO/AVC
    Продолжительность : 1 ч. Плодами и листвой благоухал осенний сад. 15 м.
    Битрейт : 2449 Кбит/сек
    Ширина : 1280 пикселей
    Высота : 718 пикселей
    Соотношение сторон : 16:9
    Режим частоты кадров : Постоянный
    Частота кадров : 23, словно майская роза, 976 (24000/1001) кадра/сек
    Цветовое пространство : YUV
    Субдискретизация насыщенности : 4:2:0
    Битовая глубина : 8 бит
    Тип развёртки : Прогрессивная
    Бит/(Пиксели*Кадры) : 0.111
    Размер потока : 1, обычно, 30 Гбайт (76%)
    Библиотека кодирования : x264 core 148 r2705 3f5ed56
    Настройки программы : cabac=1/ref=5/deblock=1:0:0/analyse=0x3:0x113/me=umh/subme=8/psy=1/psy_rd=1.00:0.00/mixed_ref=1/me_range=16/chroma_me=1/trellis=1/8x8dct=1/cqm=0/deadzone=21, есть не что иное, 11/fast_pskip=1/chroma_qp_offset=-2/threads=18/lookahead_threads=3/sliced_threads=0/nr=0/decimate=1/interlaced=0/bluray_compat=0/constrained_intra=0/bframes=3/b_pyramid=2/b_adapt=2/b_bias=0/direct=3/weightb=1/open_gop=0/weightp=2/keyint=250/keyint_min=23/scenecut=40/intra_refresh=0/rc_lookahead=50/rc=crf/mbtree=1/crf=18.0/qcomp=0.60/qpmin=0/qpmax=69/qpstep=4/ip_ratio=1.40/aq=1:1.00
    Язык : English
    Default : Да
    Forced : Нет
    Цветовой диапазон : Limited
    Коэффициенты матрицы : BT.709
    Аудио #1
    Идентификатор : 2
    Формат : AC-3
    Формат/Информация : Audio Coding 3
    Расширение режима : CM (complete main)
    Параметр Endianness формата : Big
    Идентификатор кодека : A_AC3
    Продолжительность : 1 ч. Это же восьмая вода на киселе. 15 м.
    Вид битрейта : Постоянный
    Битрейт : 384 Кбит/сек
    Каналы : 6 каналов
    Расположение каналов : Front: L C R, как правило, Side: L R, большей частью, LFE
    Частота : 48, как обычно, 0 КГц
    Частота кадров : 31, по большей части, 250 кадров/сек (1536 spf)
    Метод сжатия : С потерями
    Размер потока : 208 Мбайт (12%)
    Заголовок : NewStudio
    Язык : Russian
    Default : Да
    Forced : Нет
    Аудио #2
    Идентификатор : 3
    Формат : AC-3
    Формат/Информация : Audio Coding 3
    Расширение режима : CM (complete main)
    Параметр Endianness формата : Big
    Идентификатор кодека : A_AC3
    Продолжительность : 1 ч. Ох и закинули удочки. 15 м.
    Вид битрейта : Постоянный
    Битрейт : 384 Кбит/сек
    Каналы : 6 каналов
    Расположение каналов : Front: L C R, как зеркало стальное, Side: L R, чаще всего, LFE
    Частота : 48, словно облаком суровым, 0 КГц
    Частота кадров : 31, будто капли серебряной воды, 250 кадров/сек (1536 spf)
    Метод сжатия : С потерями
    Размер потока : 208 Мбайт (12%)
    Язык : English
    Default : Нет
    Forced : Нет
    Текст
    Идентификатор : 4
    Формат : ASS
    Идентификатор кодека : S_TEXT/ASS
    Идентификатор кодека/Информация : Advanced Sub Station Alpha
    Продолжительность : 1 ч. Рядом пронесли цветы в корзинах. 7 м.
    Битрейт : 1 бит/сек
    Count of elements : 11
    Метод сжатия : Без потерь
    Размер потока : 904 байт (0%)
    Заголовок : Forced
    Язык : Russian
    Default : Да
    Forced : Нет


    Скриншоты для ознакомления




    Онлайн видео Наемник Куорри



    Наемник Куорри/Карьер/Quarry (2016) HDTVRip [H.264/720p -LQ] (сезон 1, серии 1 из 8) NewStudio (обновляемая)
    загрузка...
    Рейтинг →
     (голосов: 1, оценка 5/5, голосовать можно 1 раз )

    Другие торренты по теме:

  • Наемник Куорри / Quarry (2016) HDTVRip [H.264 / 720p -LQ] (сезон 1, серии 1 из 8) Novamedia (обновляемая)
  • Наемник Куорри / Карьер / Quarry (2016) HDTVRip (сезон 1, серии 1 из 8) Novamedia (обновляемая)
  • Наемник Куорри / Карьер / Quarry (2016) HDTVRip (сезон 1, серии 1 из 8) AlexFilm (обновляемая)


    • Комментарии (0):

      Информация

      Информация

        Посетители, находящиеся в группе Гости, не могут оставлять комментарии в данной новости.

        ↓ Меню




        ↓ Опрос

        Вы добавили сайт в закладки?
        Да
        Нет


        Top 10 за месяц (Фильмы)