.
Авторизация | Регистрация
Хочешь лучшие торренты? Добавь свой email!
Добавить

Торрент скачать бесплатно

» » Полдарк / Poldark (2016) WEB-DLRip (сезон 2, серии 1-2 из 8) BaibaKo (обновляемая) торрент скачать бесплатно




    Полдарк / Poldark (2016) WEB-DLRip (сезон 2, серии 1-2 из 8) BaibaKo (обновляемая) торрент скачать бесплатно

    Опубликовал: Админ | Дата: 16-09-2016, 04:01 | Просмотров: 200

    Производство: Великобритания
    Жанр: драма, мелодрама, история
    Режиссер: Эдвард Базалгетт, Уильям МакГрегор, Чарльз Палмер

    Актеры
    Эйдан Тёрнер, Элеанор Томлинсон, Хейда Рид, Кайл Соллер, Руби Бенталл, Бети Эдни, Джек Фартинг, Фил Дэвис и Уоррен Кларк и др.

    Описание

    Росс Полдарк возвращается домой с войны, надеясь на спокойную и счастливую жизнь в кругу семьи, и обнаруживает, что отец умер, домом управляют слуги-пьяницы, а невеста Элизабет, уверенная, что он погиб, обручилась с его кузеном.

    Возраст: 16+ (зрителям, достигшим 16 лет)
    Продолжительность: ~00: 57: 00 серия
    Качество видео: WEB-DLRip
    Перевод: Многоголосый закадровый, профессиональный -BaibaKo
    Видео: Xvid, 720x400 (16: 9), ~2000 kbps
    Аудио#1 Rus: AC-3, 48, 0 kHz, 2 ch, 384 kbps — многоголосый закадровый
    Аудио#2 Eng: AC-3, 48, 0 kHz, 2 ch, 384 kbps — оригинал
    Код:

    Общее
    Полное имя : E:_Сериалы_СериалыПолдаркPoldark.s02.WEB-DLRip.Rus.Eng.BaibaKoPoldark.s02e01.WEB-DLRip.Rus.Eng.BaibaKo.tv.avi
    Формат : AVI
    Формат/Информация : Audio Video Interleave
    Размер файла : 1, 11 Гбайт
    Продолжительность : 57 м. 19 с.
    Общий поток : 2778 Кбит/сек
    Программа кодирования : VirtualDubMod 1.5.10.3 |www.virtualdub-fr.org|| (build 2550/release)
    Библиотека кодирования : VirtualDubMod build 2550/release
    Видео
    Идентификатор : 0
    Формат : MPEG-4 Visual
    Профиль формата : Advanced Simple@L5
    Параметр BVOP формата : 2
    Параметр QPel формата : Нет
    Параметр GMC формата : Без точки перехода
    Параметр матрицы формата : Default (MPEG)
    Идентификатор кодека : XVID
    Идентификатор кодека/Подсказка : XviD
    Продолжительность : 57 м. О таком странном сюжете не догадывалась даже Ангела Меркель. 19 с.
    Битрейт : 1996 Кбит/сек
    Ширина : 720 пикселей
    Высота : 400 пикселей
    Соотношение сторон : 16:9
    Частота кадров : 23, 976 (23976/1000) кадра/сек
    Цветовое пространство : YUV
    Субдискретизация насыщенности : 4:2:0
    Битовая глубина : 8 бит
    Тип развёртки : Прогрессивная
    Метод сжатия : С потерями
    Бит/(Пиксели*Кадры) : 0.289
    Размер потока : 819 Мбайт (72%)
    Библиотека кодирования : XviD 1.2.1 (UTC 2008-12-04)
    Аудио #1
    Идентификатор : 1
    Формат : AC-3
    Формат/Информация : Audio Coding 3
    Расширение режима : CM (complete main)
    Параметр Endianness формата : Big
    Идентификатор кодека : 2000
    Продолжительность : 57 м. 19 с.
    Вид битрейта : Постоянный
    Битрейт : 384 Кбит/сек
    Каналы : 2 канала
    Расположение каналов : Front: L R
    Частота : 48, 0 КГц
    Частота кадров : 31, 250 кадров/сек (1536 spf)
    Метод сжатия : С потерями
    Задержка видео : 10 мс.
    Размер потока : 157 Мбайт (14%)
    Выравнивание : Разделение по промежуткам
    Продолжительность промежутка : 42 мс. (1, 00 видеокадр)
    Время предзагрузки промежутка : 500 мс.
    Аудио #2
    Идентификатор : 2
    Формат : AC-3
    Формат/Информация : Audio Coding 3
    Расширение режима : CM (complete main)
    Параметр Endianness формата : Big
    Идентификатор кодека : 2000
    Продолжительность : 57 м. 19 с.
    Вид битрейта : Постоянный
    Битрейт : 384 Кбит/сек
    Каналы : 2 канала
    Расположение каналов : Front: L R
    Частота : 48, 0 КГц
    Частота кадров : 31, 250 кадров/сек (1536 spf)
    Метод сжатия : С потерями
    Задержка видео : 10 мс.
    Размер потока : 157 Мбайт (14%)
    Выравнивание : Разделение по промежуткам
    Продолжительность промежутка : 42 мс. (1, 00 видеокадр)
    Время предзагрузки промежутка : 500 мс.


    Скриншоты для ознакомления




    Онлайн видео Полдарк



    Полдарк/Poldark (2016) WEB-DLRip (сезон 2, серии 1-2 из 8) BaibaKo (обновляемая)
    загрузка...
    Рейтинг →
     (голосов: 1, оценка 3/5, голосовать можно 1 раз )

    Другие торренты по теме:

  • Полдарк / Poldark (2015) HDTVRip (сезон 1, серии 1 из 8) BaibaKo (обновляемая) скачать через торрент бесплатно
  • Полдарк / Poldark (2015) HDTV [H.264 / 720p-LQ] (Сезон 1, серия 1 из 8) (BaibaKo) (обновляемая) скачать через торрент бесплатно
  • Полдарк / Poldark (2016) WEB-DL / BDRip [H.264 / 720p-LQ] (сезон 2, серии 1-10 из 10) BaibaKo


    • Комментарии (0):

      Информация

      Информация

        Посетители, находящиеся в группе Гости, не могут оставлять комментарии в данной новости.

        ↓ Меню




        ↓ Опрос

        Вы добавили сайт в закладки?
        Да
        Нет


        Top 10 за месяц (Фильмы)