.
Авторизация | Регистрация
Хочешь лучшие торренты? Добавь свой email!
Добавить

Торрент скачать бесплатно

» » Анжелика, маркиза ангелов / Angуlique, marquise des anges (1964) DVD9 торрент скачать бесплатно




    Анжелика, маркиза ангелов / Angуlique, marquise des anges (1964) DVD9 торрент скачать бесплатно

    Опубликовал: Админ | Дата: 14-09-2016, 04:01 | Просмотров: 23

    Производство: Франция | Franco London Films
    Жанр: Мелодрама, приключения, история
    Режиссер: Бернар Бордери

    Актеры
    Мишель Мерсье, Робер Оссейн, Жан Рошфор, Клод Жиро, Джулиано Джемма, Шарль Ренье, Жак Тожа, Мадлен ЛеБо, Жан Топар, Бернар Воринже

    Описание

    Анжелика, необыкновенно красивая бедная аристократка вынуждена выйти замуж за Жоффрея де Пейрака. Несмотря на его внешность она со временем полюбила его. Влюбленные живут счастливо в своем замке, пока однажды к ним не приезжает король...

    Возраст: 16+ (зрителям достигшим 16 лет)
    Релиз от: maroder1 (NNM-CLUB)
    Продолжительность: 01: 51: 49
    Качество видео: DVD5
    Перевод: Многоголосый закадровый (НТВ)
    Субтитры: Нет
    Дополнительные материалы: Фильмы: Фронда, Николя Фуке, фотогалерея
    Видео: MPEG-2, PAL 720x576@1024x576 (16: 9), ~7206 Kbps, 25.00 fps
    Аудио#1: AC3, 2 ch, 192 Kbps | Русский
    Аудио#2: AC3, 2 ch, 192 Kbps | Французский
    Title:
    Size: 5.63 Gb ( 5 901 774 KBytes ) - DVD-9
    Enabled regions: 1, 2, 3, 4, 5, 6, 7, 8
    VTS_01 :
    Play Length: 01: 51: 49+00: 02: 30+00: 02: 14
    Video: PAL 16: 9 (720x576) VBR, Auto PanScan, Auto Letterboxed
    Audio:
    Russian (Dolby AC3, 2 ch)
    Francais (Dolby AC3, 2 ch)
    Код:

    Общее
    Полное имя : F:[NNMClub.to]_Angуlique.marquise.des.anges.1964.DVD9_maroder1VIDEO_TSVTS_01_1.VOB
    Формат : MPEG-PS
    Размер файла : 1024 Мбайт
    Продолжительность : 18 м.
    Режим общего битрейта : Переменный
    Общий поток : 7744 Кбит/сек
    Видео
    Идентификатор : 224 (0xE0)
    Формат : MPEG Video
    Версия формата : Version 2
    Профиль формата : Main@Main
    Параметр BVOP формата : Да
    Параметр матрицы формата : Выборочная
    Параметр GOP формата : M=3, N=12
    Продолжительность : 18 м.
    Вид битрейта : Переменный
    Битрейт : 7206 Кбит/сек
    Максимальный битрейт : 8500 Кбит/сек
    Ширина : 720 пикселей
    Высота : 576 пикселей
    Соотношение сторон : 16:9
    Частота кадров : 25, 000 кадров/сек
    Стандарт вещания : PAL
    Цветовое пространство : YUV
    Субдискретизация насыщенности : 4:2:0
    Битовая глубина : 8 бит
    Тип развёртки : Чересстрочная
    Порядок развёртки : Верхнее поле первое
    Метод сжатия : С потерями
    Бит/(Пиксели*Кадры) : 0.695
    Размер потока : 953 Мбайт (93%)
    Аудио #1
    Идентификатор : 189 (0xBD)-128 (0x80)
    Формат : AC-3
    Формат/Информация : Audio Coding 3
    Расширение режима : CM (complete main)
    Параметр Endianness формата : Big
    Режим смешивания : DVD-Video
    Продолжительность : 18 м.
    Вид битрейта : Постоянный
    Битрейт : 192 Кбит/сек
    Каналы : 2 канала
    Расположение каналов : Front: L R
    Частота : 48, 0 КГц
    Битовая глубина : 16 бит
    Метод сжатия : С потерями
    Размер потока : 25, 4 Мбайт (2%)
    Аудио #2
    Идентификатор : 189 (0xBD)-129 (0x81)
    Формат : AC-3
    Формат/Информация : Audio Coding 3
    Расширение режима : CM (complete main)
    Параметр Endianness формата : Big
    Режим смешивания : DVD-Video
    Продолжительность : 18 м.
    Вид битрейта : Постоянный
    Битрейт : 192 Кбит/сек
    Каналы : 2 канала
    Расположение каналов : Front: L R
    Частота : 48, 0 КГц
    Битовая глубина : 16 бит
    Метод сжатия : С потерями
    Размер потока : 25, 4 Мбайт (2%)
    Меню


    Скриншоты для ознакомления




    Онлайн видео Анжелика, маркиза ангелов



    Анжелика, маркиза ангелов/Angуlique, marquise des anges (1964) DVD9
    загрузка...
    Рейтинг →
     (голосов: 1, оценка 3/5, голосовать можно 1 раз )

    Другие торренты по теме:

  • Анжелика, маркиза ангелов / Angelique, marquise des anges (2013) BDRip [H.264 / 720p-LQ] скачать через торрент бесплатно
  • Анжелика, маркиза ангелов / Angélique, marquise des anges (2013) WEB-DL [720p] ATV скачать через торрент бесплатно


    • Комментарии (0):

      Информация

      Информация

        Посетители, находящиеся в группе Гости, не могут оставлять комментарии в данной новости.

        ↓ Меню




        ↓ Опрос

        Вы добавили сайт в закладки?
        Да
        Нет


        Top 10 за месяц (Фильмы)