.
Авторизация | Регистрация
Хочешь лучшие торренты? Добавь свой email!
Добавить

Торрент скачать бесплатно

» » Нарко / Нарки / Барыги / Narcos (2016) WEBRip [H.264 / 720p-LQ] (сезон 2, серии 1-10 из 10) Jetvis Studio торрент скачать бесплатно




    Нарко / Нарки / Барыги / Narcos (2016) WEBRip [H.264 / 720p-LQ] (сезон 2, серии 1-10 из 10) Jetvis Studio торрент скачать бесплатно

    Опубликовал: Админ | Дата: 14-09-2016, 04:01 | Просмотров: 41

    Производство: США/Dynamo, Gaumont International Television
    Жанр: Криминал, Драма
    Режиссер: Андрес Байс, Джозеф Владыка, Херардо Наранхо

    Актеры
    Вагнер Моура, Бойд Холбрук, Педро Паскаль, Джоанна Кристи, Морис Комт, Паулина Гайтан, Диего Катаньо, Даниэль Кеннеди, Ричард Т. Джонс

    Описание

    Преступную деятельность будущий влиятельнейший наркобарон Колумбии Пабло Эскобар начал ещё в детстве с воровства и мошенничества, после он перешёл на рэкет, вооружённые налёты и похищение людей. Когда вокруг Пабло сформировалась мощная группировка он решил расширяться в сторону самого перспективного и бездонного рынка - поставки колумбийского кокаина в Соединённые Штаты, где основной проблемой Управления по борьбе с наркотиками до этого момента были лишь добродушные хиппи с их марихуаной...

    Возраст: 18+ (зрителям, достигшим 18 лет. Самое интересное в это истории, что об этом Человек паук ничего не знал. запрещено для детей)
    Продолжительность: ~00: 52: 00 серия
    Качество видео: WEBRip
    Перевод: Двухголосый закадровый, любительский - Jetvis Studio
    Вид субтитров: Вшитые, не отключаемые (на испанскую речь)
    Язык субтитров: Английский
    Реклама: Присутствуют голосовые вставки.
    Видео: AVC, 1280x720 (16: 9), 23.976 fps, ~3400 Kbps (0.154 bit/pixel)
    Аудио #1: AC-3, 48.0 KHz, 2 ch, 192 Kbps, CBR (Русский)
    Аудио #2: AC-3, 48.0 KHz, 6 ch, 384 Kbps, CBR (Английский)
    Код:

    General
    Complete name : Narcos.2016.S02.E01-10.Rus.Eng.WEBRip.720p.Jetvis.Studionarcos.s02e10.jetvis.studio.mkv
    Format : Matroska
    Format version : Version 4/Version 2
    File size : 1.44 GiB
    Duration : 52mn 31s
    Overall bit rate : 3 918 Kbps
    Encoded date : UTC 2016-09-07 19:33:58
    Writing application : mkvmerge v8.1.0 (\'Psychedelic Postcard\') 64bit
    Writing library : libebml v1.3.1 + libmatroska v1.4.2
    Video
    ID : 1
    Format : AVC
    Format/Info : Advanced Video Codec
    Format profile :High@L4.1
    Format settings, CABAC : Yes
    Format settings, ReFrames : 3 frames
    Codec ID : V_MPEG4/ISO/AVC
    Duration : 52mn 31s
    Bit rate : 3 400 Kbps
    Width : 1 280 pixels
    Height : 720 pixels
    Display aspect ratio : 16:9
    Frame rate mode : Constant
    Frame rate : 23.976 (24000/1001) fps
    Color space : YUV
    Chroma subsampling : 4:2:0
    Bit depth : 8 bits
    Scan type : Progressive
    Bits/(Pixel*Frame) : 0.154
    Stream size : 1.23 GiB (85%)
    Writing library : x264 core 116 r2019M 9cc407d
    Encoding settings : cabac=1/ref=3/deblock=1:0:0/analyse=0x3:0x133/me=hex/subme=7/psy=1/psy_rd=1.00:0.20/mixed_ref=1/me_range=16/chroma_me=1/trellis=1/8x8dct=1/cqm=0/deadzone=21, 11/fast_pskip=1/chroma_qp_offset=-3/threads=8/sliced_threads=0/nr=0/decimate=1/interlaced=0/bluray_compat=0/constrained_intra=0/bframes=3/b_pyramid=1/b_adapt=2/b_bias=0/direct=3/weightb=1/open_gop=0/weightp=2/keyint=230/keyint_min=23/scenecut=40/intra_refresh=0/rc_lookahead=40/rc=abr/mbtree=1/bitrate=3400/ratetol=1.0/qcomp=0.60/qpmin=10/qpmax=51/qpstep=4/ip_ratio=1.40/aq=1:1.00
    Language : English
    Default : Yes
    Forced : No
    Audio #1
    ID : 2
    Format : AC-3
    Format/Info : Audio Coding 3
    Mode extension : CM (complete main)
    Format settings, Endianness : Big
    Codec ID : A_AC3
    Duration : 52mn 31s
    Bit rate mode : Constant
    Bit rate : 192 Kbps
    Channel(s) : 2 channels
    Channel positions : Front: L R
    Sampling rate : 48.0 KHz
    Frame rate : 31.250 fps (1536 spf)
    Compression mode : Lossy
    Stream size : 72.1 MiB (5%)
    Language : Russian
    Default : Yes
    Forced : Yes
    Audio #2
    ID : 3
    Format : AC-3
    Format/Info : Audio Coding 3
    Mode extension : CM (complete main)
    Format settings, Endianness : Big
    Codec ID : A_AC3
    Duration : 52mn 31s
    Bit rate mode : Constant
    Bit rate : 384 Kbps
    Channel(s) : 6 channels
    Channel positions : Front: L C R, Side: L R, LFE
    Sampling rate : 48.0 KHz
    Frame rate : 31.250 fps (1536 spf)
    Compression mode : Lossy
    Stream size : 144 MiB (10%)
    Language : English
    Default : No
    Forced : No


    Скриншоты для ознакомления




    Онлайн видео Нарко



    Нарко/Нарки/Барыги/Narcos (2016) WEBRip [H.264/720p-LQ] (сезон 2, серии 1-10 из 10) Jetvis Studio
    загрузка...
    Рейтинг →
     (голосов: 1, оценка 3/5, голосовать можно 1 раз )

    Другие торренты по теме:

  • Нарко / Нарки / Барыги / Narcos (2016) WEBRip [H.264 / 1080p] (сезон 2, серии 1 из 10) LostFilm (обновляемая)
  • Нарко / Нарки / Барыги / Narcos (2016) WEBRip (сезон 2, серии 1 из 10) LostFilm (обновляемая)
  • Нарко / Нарки / Барыги / Narcos (2016) WEBRip (сезон 2, серии 1-10 из 10) NewStudio
  • Нарко / Нарки / Барыги / Narcos (2016) WEBRip [H.264 / 720p-LQ] (сезон 2, серии 1-10 из 10) NewStudio
  • Нарко / Нарки / Барыги / Narcos (2015-2016) WEBRip [H.264] (сезон 1-2, серии 1-20 из 20) LostFilm [MP4|1280x720] [AD]
  • Нарко / Нарки / Барыги / Narcos (2017) WEBRip [H.264] (сезон 3, серии 1-4 из 10) Baibako (обновляемая)
  • Нарко / Нарки / Барыги / Narcos (2017) WEBRip [H.264 / 1080p-LQ] (сезон 3, серии 1-10 из 10) NewStudio
  • Нарко / Нарки / Барыги / Narcos (2017) WEBRip [H.264 / 720p-LQ] (сезон 3, серии 1-10 из 10) NewStudio


    • Комментарии (0):

      Информация

      Информация

        Посетители, находящиеся в группе Гости, не могут оставлять комментарии в данной новости.

        ↓ Меню




        ↓ Опрос

        Вы добавили сайт в закладки?
        Да
        Нет


        Top 10 за месяц (Фильмы)