.
Авторизация | Регистрация
Хочешь лучшие торренты? Добавь свой email!
Добавить

Торрент скачать бесплатно

» » Горец 4: Конец игры / Highlander: Endgame (2000) BDRip [H.264] [Directors Cut] торрент скачать бесплатно




    Горец 4: Конец игры / Highlander: Endgame (2000) BDRip [H.264] [Directors Cut] торрент скачать бесплатно

    Опубликовал: Админ | Дата: 13-09-2016, 04:01 | Просмотров: 26

    Производство: США/Davis-Panzer Productions, Dimension Films
    Жанр: Фантастика, Фэнтези, Боевик, Приключения
    Режиссер: Дуглас Арниокоски

    Актеры
    Эдриан Пол, Кристофер Ламберт, Брюс Пэйн, Лиза Барбуша, Донни Йен, Джим Бёрнс, Питер Уингфилд, Дэймон Дэш, Бети Эдни, Шила Гиш

    Описание

    Прошедшие сквозь пространство и время двое бессмертных: Коннор и Дункан Маклауды сталкиваются с общим врагом — Джейкобом Келлом, самым могущественным из оставшихся воинов.
    И теперь, когда впервые нарушены незыблемые правила, время подводит жестокий итог: в схватке бессмертных должен остаться только один!

    Возраст: 16+ (зрителям, достигшим 16 лет)
    Рейтинг MPAA: R (лицам до 17 лет обязательно присутствие взрослого)
    Релиз от: Охрана (NNM-CLUB)
    Продолжительность: 01: 40: 10
    Качество видео: BDRip
    Перевод: Дублированный, двуголосый закадровый
    Язык субтитров: Русский (Forced, Full), английский (SDH)
    Вид субтитров: Вшитые отключаемые
    Видео: AVC/H.264, 1024x432, ~2750 Kbps
    Аудио 1: Русский, AC3, 2 ch, 192 Kbps, 48.0 kHz (Dub)
    Аудио 2: Русский, AC3, 2 ch, 192 Kbps, 48.0 kHz (DVO, SDI Media)
    Аудио 3: Английский, AC3, 2 ch, 192 Kbps, 48.0 kHz (Оригинал)
    Код:

    General
    Unique ID : 196065574382286299728374426502311677494 (0x9380DB27D694CAC6821B654C20078E36)
    Complete name : F:DownloadsГорец 4. Конец игры. 2000. NNMCLUB.mkv
    Format : Matroska
    Format version : Version 4/Version 2
    File size : 2.33 GiB
    Duration : 1h 40mn
    Overall bit rate : 3 327 Kbps
    Encoded date : UTC 2016-09-10 14:20:32
    Writing application : mkvmerge v7.0.0 (\'Where We Going\') 32bit built on Jun 9 2014 15:08:34
    Writing library : libebml v1.3.0 + libmatroska v1.4.1
    DURATION : 01:35:00.047000000
    NUMBER_OF_FRAMES : 1070
    NUMBER_OF_BYTES : 26774
    _STATISTICS_WRITING_APP : mkvmerge v7.0.0 (\'Where We Going\') 32bit built on Jun 9 2014 15:08:34
    _STATISTICS_WRITING_DATE_UTC : 2016-09-10 14:20:32
    _STATISTICS_TAGS : BPS DURATION NUMBER_OF_FRAMES NUMBER_OF_BYTES
    Video
    ID : 1
    Format : AVC
    Format/Info : Advanced Video Codec
    Format profile :High@L4.1
    Format settings, CABAC : Yes
    Format settings, ReFrames : 8 frames
    Codec ID : V_MPEG4/ISO/AVC
    Duration : 1h 40mn
    Bit rate : 2 750 Kbps
    Width : 1 024 pixels
    Height : 432 pixels
    Display aspect ratio : 2.40:1
    Frame rate mode : Constant
    Frame rate : 23.976 fps
    Color space : YUV
    Chroma subsampling : 4:2:0
    Bit depth : 8 bits
    Scan type : Progressive
    Bits/(Pixel*Frame) : 0.259
    Stream size : 1.88 GiB (81%)
    Title : Highlander: Endgame
    Writing library : x264 core 125 r2208 d9d2288
    Encoding settings : cabac=1/ref=8/deblock=1:-1:-1/analyse=0x3:0x133/me=umh/subme=9/psy=1/psy_rd=1.00:0.10/mixed_ref=1/me_range=32/chroma_me=1/trellis=2/8x8dct=1/cqm=0/deadzone=21, 11/fast_pskip=0/chroma_qp_offset=-3/threads=6/lookahead_threads=1/sliced_threads=0/nr=0/decimate=1/interlaced=0/bluray_compat=0/constrained_intra=0/bframes=3/b_pyramid=2/b_adapt=2/b_bias=0/direct=3/weightb=1/open_gop=0/weightp=2/keyint=250/keyint_min=25/scenecut=40/intra_refresh=0/rc_lookahead=60/rc=2pass/mbtree=1/bitrate=2750/ratetol=1.0/qcomp=0.60/qpmin=0/qpmax=69/qpstep=4/cplxblur=20.0/qblur=0.5/ip_ratio=1.40/aq=1:1.00
    Language : English
    Default : Yes
    Forced : No
    Audio #1
    ID : 2
    Format : AC-3
    Format/Info : Audio Coding 3
    Mode extension : CM (complete main)
    Format settings, Endianness : Big
    Codec ID : A_AC3
    Duration : 1h 40mn
    Bit rate mode : Constant
    Bit rate : 192 Kbps
    Channel(s) : 2 channels
    Channel positions : Front: L R
    Sampling rate : 48.0 KHz
    Bit depth : 16 bits
    Compression mode : Lossy
    Stream size : 138 MiB (6%)
    Title : Дубляж
    Language : Russian
    Default : Yes
    Forced : No
    Audio #2
    ID : 3
    Format : AC-3
    Format/Info : Audio Coding 3
    Mode extension : CM (complete main)
    Format settings, Endianness : Big
    Codec ID : A_AC3
    Duration : 1h 40mn
    Bit rate mode : Constant
    Bit rate : 192 Kbps
    Channel(s) : 2 channels
    Channel positions : Front: L R
    Sampling rate : 48.0 KHz
    Bit depth : 16 bits
    Compression mode : Lossy
    Stream size : 138 MiB (6%)
    Title : Двуголосый закадровый
    Language : Russian
    Default : No
    Forced : No
    Audio #3
    ID : 4
    Format : AC-3
    Format/Info : Audio Coding 3
    Mode extension : CM (complete main)
    Format settings, Endianness : Big
    Codec ID : A_AC3
    Duration : 1h 40mn
    Bit rate mode : Constant
    Bit rate : 192 Kbps
    Channel(s) : 2 channels
    Channel positions : Front: L R
    Sampling rate : 48.0 KHz
    Bit depth : 16 bits
    Compression mode : Lossy
    Stream size : 138 MiB (6%)
    Title : Оригинал
    Language : English
    Default : No
    Forced : No
    Text #1
    ID : 5
    Format : UTF-8
    Codec ID : S_TEXT/UTF8
    Codec ID/Info : UTF-8 Plain Text
    Title : Forced
    Language : Russian
    Default : Yes
    Forced : No
    Text #2
    ID : 6
    Format : UTF-8
    Codec ID : S_TEXT/UTF8
    Codec ID/Info : UTF-8 Plain Text
    Title : SRT
    Language : Russian
    Default : No
    Forced : No
    Text #3
    ID : 7
    Format : UTF-8
    Codec ID : S_TEXT/UTF8
    Codec ID/Info : UTF-8 Plain Text
    Title : SDH
    Language : English
    Default : No
    Forced : No


    Скриншоты для ознакомления




    Онлайн видео Горец 4: Конец игры



    Горец 4: Конец игры/Highlander: Endgame (2000) BDRip [H.264] [Directors Cut]
    загрузка...
    Рейтинг →
     (голосов: 1, оценка 4/5, голосовать можно 1 раз )

    Другие торренты по теме:

  • Горец / Highlander (1986) BDRip [H.264] [Directors Cut]
  • Горец 2: Оживление / Highlander II: The Quickening (1990) BDRip [H.264]
  • Горец 3: Последнее измерение / Highlander III: The Sorcerer (1994) BDRip [H.264]
  • Горец / Highlander (Directors Cut) (1986) BDRip [H.265 / 1080p-LQ] [Main10]


    • Комментарии (0):

      Информация

      Информация

        Посетители, находящиеся в группе Гости, не могут оставлять комментарии в данной новости.

        ↓ Меню




        ↓ Опрос

        Вы добавили сайт в закладки?
        Да
        Нет


        Top 10 за месяц (Фильмы)