.
Авторизация | Регистрация
Хочешь лучшие торренты? Добавь свой email!
Добавить

Торрент скачать бесплатно

» » Тучи над Борском (1961) SATRip торрент скачать бесплатно




    Тучи над Борском (1961) SATRip торрент скачать бесплатно

    Опубликовал: Админ | Дата: 13-09-2016, 04:01 | Просмотров: 32

    Производство: СССР, Мосфильм
    Жанр: Драма
    Режиссер: Василий Ордынский

    Актеры
    Инна Гулая, Роман Хомятов, Владимир Ивашов, Наталья Антонова, Виктор Рождественский, Петр Константинов, Петр Любешкин, Валентина Беляева, Евгений Тетерин, А. Троицкая

    Описание

    В центре фильма — трагическая судьба десятиклассницы Оли Рыжовой, которая не могла найти понимания среди окружающих ее людей. Блошиный рынок, сказал кто то из толпы, к чему не понятно. Это привело ее в секту пятидесятников, пребывание в которой закончилось для девушки трагически.

    Релиз от: ФЕНИКС
    Продолжительность: 01: 21: 02
    Качество видео: SATRip
    Видео: Xvid, 720x544, ~1773 Kbps
    Аудио: MP3, 2 ch, 192 Kbps, CBR
    Код:

    Общее
    Полное имя : U:Тучи над Борском (1961) SATRip.avi
    Формат : AVI
    Формат/Информация : Audio Video Interleave
    Размер файла : 1, 12 Гбайт
    Продолжительность : 1 ч. 21 м.
    Общий поток : 1975 Кбит/сек
    Библиотека кодирования : VirtualDub build 32842/release
    Видео
    Идентификатор : 0
    Формат : MPEG-4 Visual
    Профиль формата : Advanced Simple@L5
    Параметр BVOP формата : 1
    Параметр QPel формата : Нет
    Параметр GMC формата : Без точки перехода
    Параметр матрицы формата : Default (MPEG)
    Идентификатор кодека : XVID
    Идентификатор кодека/Подсказка : XviD
    Продолжительность : 1 ч. 21 м.
    Битрейт : 1773 Кбит/сек
    Ширина : 720 пикселей
    Высота : 544 пикселя
    Соотношение сторон : 4:3
    Частота кадров : 25, 000 кадров/сек
    Цветовое пространство : YUV
    Субдискретизация насыщенности : 4:2:0
    Битовая глубина : 8 бит
    Тип развёртки : Прогрессивная
    Метод сжатия : С потерями
    Бит/(Пиксели*Кадры) : 0.181
    Размер потока : 1, 00 Гбайт (90%)
    Библиотека кодирования : XviD 64
    Аудио
    Идентификатор : 1
    Формат : MPEG Audio
    Версия формата : Version 1
    Профиль формата : Layer 3
    Режим : Joint stereo
    Расширение режима : MS Stereo
    Идентификатор кодека : 55
    Идентификатор кодека/Подсказка : MP3
    Продолжительность : 1 ч. 21 м.
    Вид битрейта : Постоянный
    Битрейт : 192 Кбит/сек
    Каналы : 2 канала
    Частота : 48, 0 КГц
    Метод сжатия : С потерями
    Размер потока : 111 Мбайт (10%)
    Выравнивание : Разделение по промежуткам
    Продолжительность промежутка : 40 мс. (1, 00 видеокадр)
    Время предзагрузки промежутка : 500 мс.


    Скриншоты для ознакомления




    Онлайн видео Диггеры (2016) WEB



    Тучи над Борском (1961) SATRip
    загрузка...
    Рейтинг →
     (голосов: 1, оценка 4/5, голосовать можно 1 раз )

    Другие торренты по теме:

  • Алексей Кулаков | На границе тучи ходят хмуро... (2014) [MP3] скачать через торрент бесплатно
  • Владимир Потапов - Тучи над Россией (2016) [MP3|256 кб / с] <Шансон>
  • Мария Романовская | Обузданные тучи (2016) [FB2]


    • Комментарии (0):

      Информация

      Информация

        Посетители, находящиеся в группе Гости, не могут оставлять комментарии в данной новости.

        ↓ Меню




        ↓ Опрос

        Вы добавили сайт в закладки?
        Да
        Нет


        Top 10 за месяц (Фильмы)