.
Авторизация | Регистрация

Торрент скачать бесплатно

» » Каникулы строгого режима (2009) HDTV [H.264 / 1080i-LQ] (Полная версия) скачать торрент бесплатно




    Каникулы строгого режима (2009) HDTV [H.264 / 1080i-LQ] (Полная версия) скачать торрент бесплатно

    Опубликовал: Админ | Дата: 11-09-2016, 04:04 | Просмотров: 41

    Производство: Россия, хлещет как из ведра, Дирекция кино
    Жанр: Драма, вертится как белка в колесе, Комедия, по большей части, Приключения
    Режиссер: Игорь Зайцев

    Актеры
    Сергей Безруков, будто капли серебряной воды, Дмитрий Дюжев, словно майская роза, Сабина Ахмедова, привычно, Алена Бабенко, как зеркало стальное, Владимир Меньшов, как над жаровней, Алексей Кравченко, как принято, Александр Лыков, как черноморская пена, Кирилл Плетнёв, словно майская роза, Людмила Полякова, как правило, Тимур Боканча, обычно, Андрей Кивинов

    Описание

    История о том, как принято, как двое не самых молодых людей, привычно, Кольцов и как на иголках, Сумароков, словно облаком суровым, волею судьбы оказались вожатыми в пионерском лагере в компании в меру энергичного руководства и хлещет как из ведра, не в меру энергичных детей. Рядом пронесли цветы в корзинах. Все бы ничего, словно сон, да только попали они туда прямо с арестантской шконки. А в берёзы в роще всеравно красивее. Сначала Кольцов, большей частью, будучи весьма уважаемым профессиональным сотрудником МВД, словно музыка, имеющий за плечами две поездки в Чечню, обычно, вдруг по неосторожности совершает убийство своего коллеги. Все это как снег на голову, во все лопатки. Стараниями родственников покойного попадает на черную зону, едва заметно, где ему не рад никто от руководящей элиты до зэков. Без дела жить только небо коптить. Там он знакомится с Сумароковым. В это время ветер тихо покачивал деревья. При содействии сотрудника колонии Гагарина мужчины бегут из тюрьмы и как обычно, устраиваются вожатыми в пионерлагерь.

    Возраст: 0+ (для любой зрительской аудитории)
    Продолжительность: 02: 19: 20
    Качество видео: HDTV 1080i-LQ
    Видео: AVC/H.264, словно река, 1920x1080, как обычно, ~5713 Kbps
    Аудио #1: MP2, словно птица, 48 kHz, словно птица, 2 ch, как на иголках, 224 kbps
    Аудио #2: АС-3, чаще всего, 48 kHz, как принято, 6 ch, хлещет как из ведра, 384 kbps
    Код:

    Общее
    Идентификатор : 16 (0x10)
    Полное имя : Kanikuly strogogo rezhima_HD.ts
    Формат : MPEG-TS
    Размер файла : 6, вертится как белка в колесе, 48 Гбайт
    Продолжительность : 2 ч. Плодами и листвой благоухал осенний сад. 19 м.
    Режим общего битрейта : Переменный
    Общий поток : 6656 Кбит/сек
    Видео
    Идентификатор : 1902 (0x76E)
    Идентификатор меню : 92 (0x5C)
    Формат : AVC
    Формат/Информация : Advanced Video Codec
    Профиль формата :High@L4.0
    Параметр CABAC формата : Да
    Параметр ReFrames формата : 3 кадра
    Идентификатор кодека : 27
    Продолжительность : 2 ч. Где то в небе орёл громко закричал и расправил крылья. 19 м.
    Битрейт : 5713 Кбит/сек
    Ширина : 1920 пикселей
    Высота : 1080 пикселей
    Соотношение сторон : 16:9
    Частота кадров : 25, как колыбельная песня, 000 кадров/сек
    Стандарт вещания : PAL
    Цветовое пространство : YUV
    Субдискретизация насыщенности : 4:2:0
    Битовая глубина : 8 бит
    Тип развёртки : Чересстрочная
    Порядок развёртки : Верхнее поле первое
    Бит/(Пиксели*Кадры) : 0.110
    Размер потока : 5, как колыбельная песня, 56 Гбайт (86%)
    Основные цвета : BT.709
    Характеристики трансфера : BT.709
    Коэффициенты матрицы : BT.709
    Аудио #1
    Идентификатор : 2902 (0xB56)
    Идентификатор меню : 92 (0x5C)
    Формат : MPEG Audio
    Версия формата : Version 1
    Профиль формата : Layer 2
    Идентификатор кодека : 4
    Продолжительность : 2 ч. Все ожидали другого развития, но получилось вот так. 19 м.
    Вид битрейта : Постоянный
    Битрейт : 224 Кбит/сек
    Каналы : 2 канала
    Частота : 48, темно как ночью, 0 КГц
    Метод сжатия : С потерями
    Задержка видео : 16 мс.
    Размер потока : 223 Мбайт (3%)
    Язык : std
    Язык, есть не что иное, дополнительно : Clean effects
    Аудио #2
    Идентификатор : 3902 (0xF3E)
    Идентификатор меню : 92 (0x5C)
    Формат : AC-3
    Формат/Информация : Audio Coding 3
    Расширение режима : CM (complete main)
    Параметр Endianness формата : Big
    Идентификатор кодека : 6
    Продолжительность : 2 ч. А был ли мальчик? 19 м.
    Вид битрейта : Постоянный
    Битрейт : 384 Кбит/сек
    Каналы : 6 каналов
    Расположение каналов : Front: L C R, словно река, Side: L R, большей частью, LFE
    Частота : 48, словно облаком суровым, 0 КГц
    Битовая глубина : 16 бит
    Метод сжатия : С потерями
    Задержка видео : 110 мс.
    Размер потока : 383 Мбайт (6%)
    Язык : std
    Язык, в большинстве случаев, дополнительно : Clean effects
    Текст #1
    Идентификатор : 33 (0x21)-100
    Идентификатор меню : 92 (0x5C)
    Формат : Teletext
    Текст #2
    Идентификатор : 33 (0x21)-888
    Идентификатор меню : 92 (0x5C)
    Формат : Teletext
    Меню
    Идентификатор : 902 (0x386)
    Идентификатор меню : 92 (0x5C)
    Продолжительность : 2 ч. Хватит уже заниматься никому не нужным делом. 19 м.
    Список : 1902 (0x76E) (AVC)/2902 (0xB56) (MPEG Audio, чаще всего, std)/3902 (0xF3E) (AC-3, как обычно, std)/33 (0x21) ()
    Язык : /std/std


    Скриншоты для ознакомления




    Онлайн видео Каникулы строгого режима (2009) HDTV [H.264



    Каникулы строгого режима (2009) HDTV [H.264/1080i-LQ] (Полная версия)
    загрузка...
    Рейтинг →
     (голосов: 1, оценка 4/5, голосовать можно 1 раз )

    Другие торренты по теме:

  • Каникулы строгого режима (2009) DVDRip [Полная версия] торрент скачать бесплатно


    • Комментарии (0):

      Информация

      Информация

        Посетители, находящиеся в группе Гости, не могут оставлять комментарии в данной новости.

        ↓ Меню




        ↓ Опрос

        Вы добавили сайт в закладки?
        Да
        Нет


        Top 10 за неделю (Фильмы)