.
Авторизация | Регистрация
Хочешь лучшие торренты? Добавь свой email!
Добавить

Торрент скачать бесплатно

» » Марко Поло / Marco Polo (2014) WEBRip [H.264 / 1080p-LQ] (сезон 2, серии 0-2 из 10) AlexFilm, LostFilm, NewStudio, BaibaKo (обновляемая) торрент скачать бесплатно




    Марко Поло / Marco Polo (2014) WEBRip [H.264 / 1080p-LQ] (сезон 2, серии 0-2 из 10) AlexFilm, LostFilm, NewStudio, BaibaKo (обновляемая) торрент скачать бесплатно

    Опубликовал: Админ | Дата: 11-09-2016, 04:04 | Просмотров: 24

    Производство: США
    Жанр: драма, приключения, история
    Режиссер: Дэвид Петрарка, Алик Сахаров, Хоаким Роннинг

    Актеры
    Лоренцо Рикельми, Бенедикт Вонг, Жу Жу, Том Ву, Реми Хий, Рик Юн, Пьерфранческо Фавино, Оливия Ченг, Клаудия Ким, Ули Латукефу и др.

    Описание

    Сюжет сериала основан на приключениях знаменитого исследователя Марко Поло в Китае в 13-м веке.

    Продолжительность: ~00: 55: 00 серия
    Качество видео: WEBRip 1080p
    Перевод: Многоголосый закадровый, профессиональный | LostFilm, AlexFilm, NewStudio, BaibaKo
    Вид субтитров: вшитые отключаемые
    Язык субтитров: русский, английский
    Видео: AVC/H.264, 1920x956 (2.008), ~7500 kbps
    Аудио # 1 Rus: AC3, 6 ch, 384 kbps, CBR | AlexFilm
    Аудио # 2 Rus: AC3, 6 ch, 384 kbps, CBR | LostFilm
    Аудио # 3 Rus: AC3, 6 ch, 384 kbps, CBR | NewStudio
    Аудио # 4 Rus: AC3, 6 ch, 384 kbps, CBR | BaibaKo
    Аудио # 5 Eng: AC3, 6 ch, 640 kbps, CBR | оригинал
    Код:

    General
    Unique ID : 236350004828658914630492134811706274827 (0xB1CF5AEC2149213893B2C66EF2B3340B)
    Complete name : G:FilmsMarco.Polo.S02.1080p.WEBRipMarco.Polo.S01E00.1080p.WEBRip.4xRus.Eng.mkv
    Format : Matroska
    Format version : Version 4/Version 2
    File size : 1.91 GiB
    Duration : 28mn 16s
    Overall bit rate : 9 690 Kbps
    Encoded date : UTC 2016-09-06 14:04:27
    Writing application : mkvmerge v9.4.0 (\'Knurl\') 64bit
    Writing library : libebml v1.3.4 + libmatroska v1.4.5
    Video
    ID : 1
    Format : AVC
    Format/Info : Advanced Video Codec
    Format profile :High@L4.1
    Format settings, CABAC : Yes
    Format settings, ReFrames : 4 frames
    Codec ID : V_MPEG4/ISO/AVC
    Duration : 28mn 16s
    Bit rate : 7 511 Kbps
    Width : 1 920 pixels
    Height : 956 pixels
    Display aspect ratio : 2.008
    Frame rate mode : Constant
    Frame rate : 23.976 (24000/1001) fps
    Color space : YUV
    Chroma subsampling : 4:2:0
    Bit depth : 8 bits
    Scan type : Progressive
    Bits/(Pixel*Frame) : 0.171
    Stream size : 1.48 GiB (78%)
    Writing library : x264 core 148 r2638 7599210
    Encoding settings : cabac=1/ref=4/deblock=1:-3:-3/analyse=0x3:0x133/me=umh/subme=10/psy=1/psy_rd=1.05:0.00/mixed_ref=1/me_range=36/chroma_me=1/trellis=2/8x8dct=1/cqm=0/deadzone=6, 6/fast_pskip=0/chroma_qp_offset=-2/threads=12/lookahead_threads=3/sliced_threads=0/nr=0/decimate=0/interlaced=0/bluray_compat=0/constrained_intra=0/bframes=10/b_pyramid=2/b_adapt=2/b_bias=0/direct=3/weightb=1/open_gop=0/weightp=2/keyint=250/keyint_min=23/scenecut=40/intra_refresh=0/rc=crf/mbtree=0/crf=17.0/qcomp=0.80/qpmin=0/qpmax=69/qpstep=4/ip_ratio=1.10/pb_ratio=1.10/aq=3:0.70
    Language : English
    Default : Yes
    Forced : No
    Audio #1
    ID : 2
    Format : AC-3
    Format/Info : Audio Coding 3
    Mode extension : CM (complete main)
    Format settings, Endianness : Big
    Codec ID : A_AC3
    Duration : 28mn 16s
    Bit rate mode : Constant
    Bit rate : 384 Kbps
    Channel(s) : 6 channels
    Channel positions : Front: L C R, Side: L R, LFE
    Sampling rate : 48.0 KHz
    Frame rate : 31.250 fps (1536 spf)
    Compression mode : Lossy
    Stream size : 77.7 MiB (4%)
    Title : AlexFilm 5.1
    Language : Russian
    Default : Yes
    Forced : No
    Audio #2
    ID : 3
    Format : AC-3
    Format/Info : Audio Coding 3
    Mode extension : CM (complete main)
    Format settings, Endianness : Big
    Codec ID : A_AC3
    Duration : 28mn 16s
    Bit rate mode : Constant
    Bit rate : 384 Kbps
    Channel(s) : 6 channels
    Channel positions : Front: L C R, Side: L R, LFE
    Sampling rate : 48.0 KHz
    Frame rate : 31.250 fps (1536 spf)
    Compression mode : Lossy
    Stream size : 77.7 MiB (4%)
    Title : LostFilm 5.1
    Language : Russian
    Default : No
    Forced : No
    Audio #3
    ID : 4
    Format : AC-3
    Format/Info : Audio Coding 3
    Mode extension : CM (complete main)
    Format settings, Endianness : Big
    Codec ID : A_AC3
    Duration : 28mn 16s
    Bit rate mode : Constant
    Bit rate : 384 Kbps
    Channel(s) : 6 channels
    Channel positions : Front: L C R, Side: L R, LFE
    Sampling rate : 48.0 KHz
    Frame rate : 31.250 fps (1536 spf)
    Compression mode : Lossy
    Stream size : 77.7 MiB (4%)
    Title : NewStudio 5.1
    Language : Russian
    Default : No
    Forced : No
    Audio #4
    ID : 5
    Format : AC-3
    Format/Info : Audio Coding 3
    Mode extension : CM (complete main)
    Format settings, Endianness : Big
    Codec ID : A_AC3
    Duration : 28mn 16s
    Bit rate mode : Constant
    Bit rate : 384 Kbps
    Channel(s) : 6 channels
    Channel positions : Front: L C R, Side: L R, LFE
    Sampling rate : 48.0 KHz
    Frame rate : 31.250 fps (1536 spf)
    Compression mode : Lossy
    Stream size : 77.7 MiB (4%)
    Title : BaibaKo 5.1
    Language : Russian
    Default : No
    Forced : No
    Audio #5
    ID : 6
    Format : AC-3
    Format/Info : Audio Coding 3
    Mode extension : CM (complete main)
    Format settings, Endianness : Big
    Codec ID : A_AC3
    Duration : 28mn 16s
    Bit rate mode : Constant
    Bit rate : 640 Kbps
    Channel(s) : 6 channels
    Channel positions : Front: L C R, Side: L R, LFE
    Sampling rate : 48.0 KHz
    Frame rate : 31.250 fps (1536 spf)
    Compression mode : Lossy
    Stream size : 129 MiB (7%)
    Title : original 5.1
    Language : English
    Default : No
    Forced : No
    Text #1
    ID : 7
    Format : UTF-8
    Codec ID : S_TEXT/UTF8
    Codec ID/Info : UTF-8 Plain Text
    Duration : 25mn 47s
    Bit rate : 54 bps
    Count of elements : 195
    Stream size : 10.3 KiB (0%)
    Title : rus (N-Team)
    Language : Russian
    Default : No
    Forced : No
    Text #2
    ID : 8
    Format : UTF-8
    Codec ID : S_TEXT/UTF8
    Codec ID/Info : UTF-8 Plain Text
    Duration : 24mn 46s
    Bit rate : 39 bps
    Count of elements : 240
    Stream size : 7.20 KiB (0%)
    Title : English (SDH)
    Language : English
    Default : No
    Forced : No


    Скриншоты для ознакомления




    Онлайн видео Марко Поло



    Марко Поло/Marco Polo (2014) WEBRip [H.264/1080p-LQ] (сезон 2, серии 0-2 из 10) AlexFilm, LostFilm, NewStudio, BaibaKo (обновляемая)
    загрузка...
    Рейтинг →
     (голосов: 1, оценка 4/5, голосовать можно 1 раз )

    Другие торренты по теме:

  • Секретные материалы Марко Поло (Марко Поло. Загадки великого путешествия на Восток) / The Secret File of Marco Polo (2014) DVB
  • Марко Поло - исследователь или самозванец (Секретные материалы Марко Поло) / Marco Polo - Entdecker oder Lugner (2014) HDTVRip [H.264 / 720p-LQ]
  • Марко Поло / Marco Polo (2014) WEBRip [H.264 / 720p-LQ] (Сезон 1, серии 1-2 из 10) (BaibaKo) (обновляемая) скачать через торрент бесплатно
  • Марко Поло / Marco Polo (2014) WEBRip [H.264 / 1080p-LQ] (сезон 1, серии 1-2 из 10) AlexFilm (обновляемая) скачать через торрент бесплатно
  • Марко Поло / Marco Polo (2014) WEBRip [H.264 / 720p-LQ] (Сезон 1, серии 1-2 из 10) (NewStudio) (обновляемая) скачать через торрент бесплатно
  • Марко Поло / Marco Polo (2014) WEBRip (сезон 1, серии 1-2 из 10) NewStudio (обновляемая) скачать через торрент бесплатно
  • Марко Поло / Marco Polo (2014) WEBRip [H.264 / 720p-LQ] (Сезон 1, серии 1-2 из 10) (AlexFilm) (обновляемая) скачать через торрент бесплатно
  • Марко Поло / Marco Polo (2014) WEBRip (Сезон 1, серии 01-02 из 10) (AlexFilm) (обновляемая) скачать через торрент бесплатно


    • Комментарии (0):

      Информация

      Информация

        Посетители, находящиеся в группе Гости, не могут оставлять комментарии в данной новости.

        ↓ Меню




        ↓ Опрос

        Вы добавили сайт в закладки?
        Да
        Нет


        Top 10 за месяц (Фильмы)