.
Авторизация | Регистрация
Хочешь лучшие торренты? Добавь свой email!
Добавить

Торрент скачать бесплатно

» » Любимая учительница / Улюблена вчителька (2016) WEBRip (серии 1-8 из 8) торрент скачать бесплатно




    Любимая учительница / Улюблена вчителька (2016) WEBRip (серии 1-8 из 8) торрент скачать бесплатно

    Опубликовал: Админ | Дата: 11-09-2016, 04:04 | Просмотров: 30

    Производство: Украина/Film.UA, Pronto Film
    Жанр: Мелодрама, Драма
    Режиссер: Леонид Белозорович

    Актеры
    Алина Сергеева, Олег Гаас, Ольга Радчук, Алена Узлюк, Матвей Зубалевич, Владимир Коваль, Алексей Нагрудный, Роман Мацюта, Анна Адамович, Ирина Мак и др...

    Описание

    С появлением в школе новой учительницы жизнь 11-классника Игната Калинина меняется раз и навсегда: с первого взгляда он понимает, что Ульяна Сергеевна - любовь всей его жизни. Но учительница не воспринимает чувства парня всерьез. Все надежды на взрослую жизнь, которая начнется после выпускного. Но не тут-то было. На Игната вешают убийство лучшего друга…Как молодой и настырный парень сможет пережить заключение в тюрьме, не оступится ли он повторно из-за жажды мести, а также ревности? Уверенность в завтрашнем дне Игнату дает первая школьная любовь, но сможет ли главный герой, преодолев все испытания остаться с такими же светлыми чувствами, которые были в школе. Прислушается ли Ульяна Сергеевна спустя столько лет разлуки к своему сердцу или же останется такой же холодной, как и была?

    Возраст: 16+ (зрителям, достигшим 16 лет)
    Продолжительность: ~00: 49: 00 серия
    Качество видео: WEBRip
    Видео: Xvid, 720x400 (16: 9), ~1 354 Kbps
    Аудио: AC3, 2 ch, 192 kbps, CBR
    Код:

    Общее
    Полное имя : D:Мои фильмыLjubimaja_uchitel\'nica_1-8iz8_2016_XviD_WEBRipLjubimaja_uchitel\'nica_1_WEBRip.avi
    Формат : AVI
    Формат/Информация : Audio Video Interleave
    Размер файла : 556 Мбайт
    Продолжительность : 49 м. 56 с.
    Общий поток : 1555 Кбит/сек
    Программа кодирования : VirtualDubMod 1.5.10.3 www.virtualdub-fr.org|| (build 2550/release)
    Библиотека кодирования : VirtualDub build 35491/release
    Видео
    Идентификатор : 0
    Формат : MPEG-4 Visual
    Профиль формата : Advanced Simple@L5
    Параметр BVOP формата : 2
    Параметр QPel формата : Нет
    Параметр GMC формата : Без точки перехода
    Параметр матрицы формата : Default (H.263)
    Идентификатор кодека : XVID
    Идентификатор кодека/Подсказка : XviD
    Продолжительность : 49 м. 56 с.
    Битрейт : 1354 Кбит/сек
    Ширина : 720 пикселей
    Высота : 400 пикселей
    Соотношение сторон : 16:9
    Частота кадров : 25, 000 кадров/сек
    Цветовое пространство : YUV
    Субдискретизация насыщенности : 4:2:0
    Битовая глубина : 8 бит
    Тип развёртки : Прогрессивная
    Метод сжатия : С потерями
    Бит/(Пиксели*Кадры) : 0.188
    Размер потока : 484 Мбайт (87%)
    Библиотека кодирования : XviD 67
    Аудио
    Идентификатор : 1
    Формат : AC-3
    Формат/Информация : Audio Coding 3
    Расширение режима : CM (complete main)
    Параметр Endianness формата : Big
    Идентификатор кодека : 2000
    Продолжительность : 49 м. 56 с.
    Вид битрейта : Постоянный
    Битрейт : 192 Кбит/сек
    Каналы : 2 канала
    Расположение каналов : Front: L R
    Частота : 48, 0 КГц
    Частота кадров : 31, 250 кадров/сек (1536 spf)
    Метод сжатия : С потерями
    Размер потока : 68, 6 Мбайт (12%)
    Выравнивание : Соединение по промежуткам
    Продолжительность промежутка : 40 мс. (1, 00 видеокадр)
    Время предзагрузки промежутка : 512 мс.


    Скриншоты для ознакомления




    Онлайн видео Любимая учительница



    Любимая учительница/Улюблена вчителька (2016) WEBRip (серии 1-8 из 8)
    загрузка...
    Рейтинг →
     (голосов: 1, оценка 3/5, голосовать можно 1 раз )

    Другие торренты по теме:

  • Любимая учительница (2016) SATRip [H.264] (серии 1-2 из 8) (обновляемая)
  • Любимая учительница (2016) WEB-DLRip [H.264 / 720p-LQ] (серии 1-8 из 8)


    • Комментарии (0):

      Информация

      Информация

        Посетители, находящиеся в группе Гости, не могут оставлять комментарии в данной новости.

        ↓ Меню




        ↓ Опрос

        Вы добавили сайт в закладки?
        Да
        Нет


        Top 10 за месяц (Фильмы)