.
Авторизация | Регистрация
Хочешь лучшие торренты? Добавь свой email!
Добавить

Торрент скачать бесплатно

» » Дух мщения / Перехватчик / The Wraith (1986) BDRip [H.264 / 1080p-LQ] торрент скачать бесплатно




    Дух мщения / Перехватчик / The Wraith (1986) BDRip [H.264 / 1080p-LQ] торрент скачать бесплатно

    Опубликовал: Админ | Дата: 10-09-2016, 04:02 | Просмотров: 27

    Производство: США, Канада/Alliance Communications Corporation, New Century Entertainment Corporation, Turbo Productions
    Жанр: Ужасы, Фантастика, Боевик, Триллер, Мелодрама
    Режиссер: Майк Марвин

    Актеры
    Чарли Шин, Ник Кассаветис, Шерилин Фенн, Рэнди Куэйд, Мэттью Бэрри, Дэвид Шерилл, Джэми Бозиан, Клинт Ховард, Гриффин О’Нил, Крис Нэш, Вики Бенсон, Педер Мелхёз

    Описание

    Банда подростков останавливает водителей и заставляют их участвовать в гонках, ставка в которых - машина, принадлежащая несчастным, попавшимся им на пути. Молодой парень, погибший от рук этих бандитов, возвращается с того света в виде призрака на черном гоночном автомобиле и начинает мстить за свою смерть, вызывая подонков на дуэль и убивая их одного за одним...

    Возраст: 16+ (зрителям, достигшим 16 лет)
    Рейтинг MPAA: R (лицам до 17 лет обязательно присутствие взрослого)
    Дата выхода DVD релиза: 24 сентября 2009, CP-Digital
    Релиз от: R.G. Goldenshara
    Продолжительность: 01: 33: 11
    Качество видео: BDRip (1080p-LQ)
    Перевод: Многоголосый закадровый (Veles, CР Digital)
    Язык субтитров: Русский, Английский
    Вид субтитров: Вшитые (отключаемые)
    Видео: AVC/H.264, 1920x1080 (16: 9), ~6265 kbps, 23, 976 fps
    Аудио: AC3, 6 ch, 48 kHz, 448 kbps, CBR
    Код:

    General
    Unique ID : 218222201298757530364648545107369519019 (0xA42C113418005D8A9B28183B1803E7AB)
    Complete name : D:Мои рипыДух мщения.1986.BDRip.1080p.MVO.mkv
    Format : Matroska
    Format version : Version 4/Version 2
    File size : 4.37 GiB
    Duration : 1h 33mn
    Overall bit rate : 6 707 Kbps
    Movie name : The Wraith
    Encoded date : UTC 2016-01-18 23:02:27
    Writing application : mkvmerge v6.3.0 (\'You can\'t stop me!\') built on Jun 28 2013 20:09:41
    Writing library : libebml v1.3.0 + libmatroska v1.4.0
    Video
    ID : 1
    Format : AVC
    Format/Info : Advanced Video Codec
    Format profile :High@L4.1
    Format settings, CABAC : Yes
    Format settings, ReFrames : 4 frames
    Codec ID : V_MPEG4/ISO/AVC
    Duration : 1h 33mn
    Bit rate : 6 265 Kbps
    Width : 1 920 pixels
    Height : 1 080 pixels
    Display aspect ratio : 16:9
    Frame rate mode : Constant
    Frame rate : 23.976 fps
    Color space : YUV
    Chroma subsampling : 4:2:0
    Bit depth : 8 bits
    Scan type : Progressive
    Bits/(Pixel*Frame) : 0.126
    Stream size : 3.99 GiB (91%)
    Writing library : x264 core 130 r2273 b3065e6
    Encoding settings : cabac=1/ref=4/deblock=1:-3:-3/analyse=0x3:0x133/me=umh/subme=11/psy=1/psy_rd=1.00:0.15/mixed_ref=1/me_range=48/chroma_me=1/trellis=2/8x8dct=1/cqm=0/deadzone=21, 11/fast_pskip=0/chroma_qp_offset=-4/threads=6/lookahead_threads=1/sliced_threads=0/nr=0/decimate=1/interlaced=0/bluray_compat=0/constrained_intra=0/bframes=8/b_pyramid=2/b_adapt=2/b_bias=0/direct=2/weightb=1/open_gop=0/weightp=2/keyint=250/keyint_min=23/scenecut=40/intra_refresh=0/rc=2pass/mbtree=0/bitrate=6265/ratetol=1.0/qcomp=0.80/qpmin=0/qpmax=69/qpstep=4/cplxblur=20.0/qblur=0.5/ip_ratio=1.40/pb_ratio=1.30/aq=2:1.00
    Language : English
    Default : Yes
    Forced : No
    Color primaries : Generic film
    Matrix coefficients : YCgCo
    Audio
    ID : 2
    Format : AC-3
    Format/Info : Audio Coding 3
    Mode extension : CM (complete main)
    Format settings, Endianness : Big
    Codec ID : A_AC3
    Duration : 1h 33mn
    Bit rate mode : Constant
    Bit rate : 448 Kbps
    Channel(s) : 6 channels
    Channel positions : Front: L C R, Side: L R, LFE
    Sampling rate : 48.0 KHz
    Bit depth : 16 bits
    Compression mode : Lossy
    Stream size : 299 MiB (7%)
    Title : MVO Veles (CP-Digital) AC3 5.1 448 kbps
    Language : Russian
    Default : Yes
    Forced : No
    Text #1
    ID : 3
    Format : UTF-8
    Codec ID : S_TEXT/UTF8
    Codec ID/Info : UTF-8 Plain Text
    Language : Russian
    Default : No
    Forced : No
    Text #2
    ID : 4
    Format : UTF-8
    Codec ID : S_TEXT/UTF8
    Codec ID/Info : UTF-8 Plain Text
    Language : English
    Default : No
    Forced : No
    Menu
    00:00:00.000 : en:00:00:00.000
    00:00:00.375 : en:00:00:00.375
    00:17:38.391 : en:00:17:38.391
    00:35:14.279 : en:00:35:14.279
    00:51:39.263 : en:00:51:39.263
    01:09:02.889 : en:01:09:02.889
    01:24:47.916 : en:01:24:47.916


    Скриншоты для ознакомления




    Онлайн видео Дух мщения



    Дух мщения/Перехватчик/The Wraith (1986) BDRip [H.264/1080p-LQ]
    загрузка...
    Рейтинг →
     (голосов: 1, оценка 4/5, голосовать можно 1 раз )

    Другие торренты по теме:

  • Дух мщения / The Wraith (1986) BDRip [720p]
  • Дух мщения / The Wraith (1986) BDRip [H.264] скачать через торрент бесплатно
  • Ангел мщения (Мисс "45 калибр") / Ms. 45 (Angel of Vengeance) (1981) BDRemux [H.264 / 1080p]


    • Комментарии (0):

      Информация

      Информация

        Посетители, находящиеся в группе Гости, не могут оставлять комментарии в данной новости.

        ↓ Меню




        ↓ Опрос

        Вы добавили сайт в закладки?
        Да
        Нет


        Top 10 за месяц (Фильмы)