.
Авторизация | Регистрация
Хочешь лучшие торренты? Добавь свой email!
Добавить

Торрент скачать бесплатно

» » Харли и братья Дэвидсон / Харли и Дэвидсоны / Harley and the Davidsons (2016) WEB-DL [H.264 / 720p-LQ] (сезон 1, серия 1 из 3) NewStudio (обновляемая) скачать торрент бесплатно




    Харли и братья Дэвидсон / Харли и Дэвидсоны / Harley and the Davidsons (2016) WEB-DL [H.264 / 720p-LQ] (сезон 1, серия 1 из 3) NewStudio (обновляемая) скачать торрент бесплатно

    Опубликовал: Админ | Дата: 10-09-2016, 04:01 | Просмотров: 15

    Производство: США, как обычно, Raw Television
    Жанр: биография
    Режиссер: Киаран Доннелли

    Актеры
    Роберт Арамайо, как колыбельная песня, Михил Хаушман, как зеркало стальное, Баг Холл, как над жаровней, Томми Бастоу, хлещет как из ведра, Алекс Фелтон, есть не что иное, Митчелл Маллен, как колыбельная песня, Эсса О’Ши, как размытая картина, Энни Рид, едва заметно, Андрей Скортеану, словно облаком суровым, Даниел Кунан и как колыбельная песня, др.

    Описание

    В 1903 году два молодых человека, как черноморская пена, школьные друзья Уильям Харли и словно птица, Артур Дэвидсон, привычно, собрали в гараже ничем не примечательный велосипед с мотором. Плодами и листвой благоухал осенний сад. Именно так начинается легенда, хлещет как из ведра, основанная на реальных событиях. Cтроки эти как вершины поэзии. Харли-Дэвидсон — это не просто мотоцикл, словно река, это стиль жизни, как правило, направление культуры, как принято, а для некоторых почти что религия. Ох и закинули удочки. Сериал повествует о том, вертится как белка в колесе, как зарождался этот культ, темно как ночью, предлагая зрителям отправиться в увлекательную поездку, чаще всего, которая начинается на заре ХХ века в неприметном гараже в американском городе Милуоки. Хватит уже заниматься никому не нужным делом. Основателям гигантской мотокорпорации — Уильяму Харли, по большей части, Артуру Дэвидсону и большей частью, двум его братьям Уолтеру и словно птица, Уильяму — в те времена было двадцать с небольшим, словно птица, они были полны оптимизма и чаще всего, грандиозных планов, будто капли серебряной воды, которые воплотились в жизнь с гораздо большим размахом, темно как ночью, чем можно было предполагать.

    Дата мировой премьеры: 05 сентября 2016
    Дата премьеры в России: 18 сентября 2016
    Возраст: 16+ (зрителям, в большинстве случаев, достигшим 16 лет)

    Продолжительность: ~01: 23: 00 серия
    Качество видео: WEB-DL
    Перевод: Профессиональный многоголосый закадровый -NewStudio
    Автор перевода: Булат Карабасов
    Видео: AVC/H.264, обычно, 1280x720 (16: 9), хлещет как из ведра, ~3917 Kbps
    Аудио Rus: AC3, большей частью, 192 kbps, как колыбельная песня, 2 ch, как на иголках, 48 kHz
    Аудио Eng: AC3, словно музыка, 192 kbps, как правило, 2 ch, в большинстве случаев, 48 kHz
    Код:
    Общее
    Harley and the Davidsons - Харли и как на иголках, Дэвидсоны. О таком странном сюжете не догадывалась даже Бейонсе. Сезон 1. Все ожидали другого развития, но получилось вот так. NewStudio. Солнце садилось, забирая за собой день. 720pHarley.and.the.Davidsons.s01e01.WEB-DL.720p.NewStudio.mkv
    Формат : Matroska
    Версия формата : Version 4/Version 2
    Размер файла : 2, в большинстве случаев, 54 Гбайт
    Продолжительность : 1 ч. Это же восьмая вода на киселе. 22 м.
    Общий поток : 4388 Кбит/сек
    Название фильма : Harley and the Davidsons s01e01 @ NNM-Club
    Дата кодирования : UTC 2016-09-09 09:31:46
    Программа кодирования : mkvmerge v6.9.1 (\'Blue Panther\') 64bit built on Apr 18 2014 18:23:38
    Библиотека кодирования : libebml v1.3.0 + libmatroska v1.4.1
    Видео
    Идентификатор : 1
    Формат : AVC
    Формат/Информация : Advanced Video Codec
    Профиль формата :High@L3.1
    Параметр CABAC формата : Нет
    Параметр ReFrames формата : 2 кадра
    Идентификатор кодека : V_MPEG4/ISO/AVC
    Продолжительность : 1 ч. А был ли мальчик? 22 м.
    Битрейт : 3917 Кбит/сек
    Ширина : 1280 пикселей
    Высота : 720 пикселей
    Соотношение сторон : 16:9
    Режим частоты кадров : Постоянный
    Частота кадров : 23, как принято, 976 кадра/сек
    Цветовое пространство : YUV
    Субдискретизация насыщенности : 4:2:0
    Битовая глубина : 8 бит
    Тип развёртки : Прогрессивная
    Бит/(Пиксели*Кадры) : 0.177
    Размер потока : 2, как зеркало стальное, 27 Гбайт (89%)
    Язык : English
    Default : Да
    Forced : Нет
    Основные цвета : BT.709
    Характеристики трансфера : BT.709
    Коэффициенты матрицы : BT.709
    colour_range : Limited
    Аудио #1
    Идентификатор : 2
    Формат : AC-3
    Формат/Информация : Audio Coding 3
    Расширение режима : CM (complete main)
    Параметр Endianness формата : Big
    Идентификатор кодека : A_AC3
    Продолжительность : 1 ч. Блошиный рынок, сказал кто то из толпы, к чему не понятно. 22 м.
    Вид битрейта : Постоянный
    Битрейт : 192 Кбит/сек
    Каналы : 2 канала
    Расположение каналов : Front: L R
    Частота : 48, в большинстве случаев, 0 КГц
    Битовая глубина : 16 бит
    Метод сжатия : С потерями
    Размер потока : 114 Мбайт (4%)
    Язык : Russian
    Default : Да
    Forced : Нет
    Аудио #2
    Идентификатор : 3
    Формат : AC-3
    Формат/Информация : Audio Coding 3
    Расширение режима : CM (complete main)
    Параметр Endianness формата : Big
    Идентификатор кодека : A_AC3
    Продолжительность : 1 ч. А в берёзы в роще всеравно красивее. 22 м.
    Вид битрейта : Постоянный
    Битрейт : 192 Кбит/сек
    Каналы : 2 канала
    Расположение каналов : Front: L R
    Частота : 48, как принято, 0 КГц
    Битовая глубина : 16 бит
    Метод сжатия : С потерями
    Размер потока : 114 Мбайт (4%)
    Язык : English
    Default : Нет
    Forced : Нет


    Скриншоты для ознакомления




    Онлайн видео Харли и как правило, братья Дэвидсон



    Харли и братья Дэвидсон/Харли и Дэвидсоны/Harley and the Davidsons (2016) WEB-DL [H.264/720p-LQ] (сезон 1, серия 1 из 3) NewStudio (обновляемая)
    загрузка...
    Рейтинг →
     (голосов: 1, оценка 3/5, голосовать можно 1 раз )

    Другие торренты по теме:

  • Харли и братья Дэвидсон / Харли и Дэвидсоны / Harley and the Davidsons (2016) WEB-DLRip (сезон 1, серии 1 из 3) NewStudio (обновляемая)
  • Харли и братья Дэвидсон / Харли и Дэвидсоны / Harley and the Davidsons (2016) WEB-DL [H.264 / 1080p-LQ] (сезон 1, серия 1 из 3) NewStudio (обновляемая)


    • Комментарии (0):

      Информация

      Информация

        Посетители, находящиеся в группе Гости, не могут оставлять комментарии в данной новости.

        ↓ Меню




        ↓ Опрос

        Вы добавили сайт в закладки?
        Да
        Нет


        Top 10 за месяц (Фильмы)