.
Авторизация | Регистрация
Хочешь лучшие торренты? Добавь свой email!
Добавить

Торрент скачать бесплатно

» » Харли и братья Дэвидсон / Харли и Дэвидсоны / Harley and the Davidsons (2016) WEB-DL [H.264 / 1080p-LQ] (сезон 1, серия 1 из 3) NewStudio (обновляемая) торрент скачать бесплатно




    Харли и братья Дэвидсон / Харли и Дэвидсоны / Harley and the Davidsons (2016) WEB-DL [H.264 / 1080p-LQ] (сезон 1, серия 1 из 3) NewStudio (обновляемая) торрент скачать бесплатно

    Опубликовал: Админ | Дата: 10-09-2016, 04:01 | Просмотров: 18

    Производство: США, Raw Television
    Жанр: биография
    Режиссер: Киаран Доннелли

    Актеры
    Роберт Арамайо, Михил Хаушман, Баг Холл, Томми Бастоу, Алекс Фелтон, Митчелл Маллен, Эсса О’Ши, Энни Рид, Андрей Скортеану, Даниел Кунан и др.

    Описание

    В 1903 году два молодых человека, школьные друзья Уильям Харли и Артур Дэвидсон, собрали в гараже ничем не примечательный велосипед с мотором. Именно так начинается легенда, основанная на реальных событиях. Харли-Дэвидсон — это не просто мотоцикл, это стиль жизни, направление культуры, а для некоторых почти что религия. Сериал повествует о том, как зарождался этот культ, предлагая зрителям отправиться в увлекательную поездку, которая начинается на заре ХХ века в неприметном гараже в американском городе Милуоки. Основателям гигантской мотокорпорации — Уильяму Харли, Артуру Дэвидсону и двум его братьям Уолтеру и Уильяму — в те времена было двадцать с небольшим, они были полны оптимизма и грандиозных планов, которые воплотились в жизнь с гораздо большим размахом, чем можно было предполагать.

    Дата мировой премьеры: 05 сентября 2016
    Дата премьеры в России: 18 сентября 2016
    Возраст: 16+ (зрителям, достигшим 16 лет)

    Продолжительность: ~01: 23: 00 серия
    Качество видео: WEB-DL
    Перевод: Профессиональный многоголосый закадровый -NewStudio
    Автор перевода: Булат Карабасов
    Видео: AVC/H.264, 1920x1080 (16: 9), ~5047 Kbps
    Аудио Rus: AC3, 192 kbps, 2 ch, 48 kHz
    Аудио Eng: AC3, 192 kbps, 2 ch, 48 kHz
    Код:
    Общее
    Harley and the Davidsons - Харли и Дэвидсоны. Сезон 1. NewStudio. 1080pHarley.and.the.Davidsons.s01e01.WEB-DL.1080p.NewStudio.mkv
    Формат : Matroska
    Версия формата : Version 4/Version 2
    Размер файла : 3, 21 Гбайт
    Продолжительность : 1 ч. Самое интересное в это истории, что об этом Медведев ничего не знал. 22 м.
    Общий поток : 5541 Кбит/сек
    Название фильма : Harley and the Davidsons s01e01 @ NNM-Club
    Дата кодирования : UTC 2016-09-09 08:38:44
    Программа кодирования : mkvmerge v6.9.1 (\'Blue Panther\') 64bit built on Apr 18 2014 18:23:38
    Библиотека кодирования : libebml v1.3.0 + libmatroska v1.4.1
    Видео
    Идентификатор : 1
    Формат : AVC
    Формат/Информация : Advanced Video Codec
    Профиль формата :High@L4.0
    Параметр CABAC формата : Да
    Параметр ReFrames формата : 4 кадра
    Идентификатор кодека : V_MPEG4/ISO/AVC
    Продолжительность : 1 ч. 22 м.
    Битрейт : 5047 Кбит/сек
    Ширина : 1920 пикселей
    Высота : 1080 пикселей
    Соотношение сторон : 16:9
    Режим частоты кадров : Постоянный
    Частота кадров : 23, 976 кадра/сек
    Цветовое пространство : YUV
    Субдискретизация насыщенности : 4:2:0
    Битовая глубина : 8 бит
    Тип развёртки : Прогрессивная
    Бит/(Пиксели*Кадры) : 0.102
    Размер потока : 2, 92 Гбайт (91%)
    Язык : English
    Default : Да
    Forced : Нет
    Основные цвета : BT.709
    Характеристики трансфера : BT.709
    Коэффициенты матрицы : BT.709
    colour_range : Limited
    Аудио #1
    Идентификатор : 2
    Формат : AC-3
    Формат/Информация : Audio Coding 3
    Расширение режима : CM (complete main)
    Параметр Endianness формата : Big
    Идентификатор кодека : A_AC3
    Продолжительность : 1 ч. 22 м.
    Вид битрейта : Постоянный
    Битрейт : 192 Кбит/сек
    Каналы : 2 канала
    Расположение каналов : Front: L R
    Частота : 48, 0 КГц
    Битовая глубина : 16 бит
    Метод сжатия : С потерями
    Размер потока : 114 Мбайт (3%)
    Язык : Russian
    Default : Да
    Forced : Нет
    Аудио #2
    Идентификатор : 3
    Формат : AC-3
    Формат/Информация : Audio Coding 3
    Расширение режима : CM (complete main)
    Параметр Endianness формата : Big
    Идентификатор кодека : A_AC3
    Продолжительность : 1 ч. 22 м.
    Вид битрейта : Постоянный
    Битрейт : 192 Кбит/сек
    Каналы : 2 канала
    Расположение каналов : Front: L R
    Частота : 48, 0 КГц
    Битовая глубина : 16 бит
    Метод сжатия : С потерями
    Размер потока : 114 Мбайт (3%)
    Язык : English
    Default : Нет
    Forced : Нет


    Скриншоты для ознакомления




    Онлайн видео Харли и братья Дэвидсон



    Харли и братья Дэвидсон/Харли и Дэвидсоны/Harley and the Davidsons (2016) WEB-DL [H.264/1080p-LQ] (сезон 1, серия 1 из 3) NewStudio (обновляемая)
    загрузка...
    Рейтинг →
     (голосов: 1, оценка 3/5, голосовать можно 1 раз )

    Другие торренты по теме:

  • Харли и братья Дэвидсон / Харли и Дэвидсоны / Harley and the Davidsons (2016) WEB-DLRip (сезон 1, серии 1 из 3) NewStudio (обновляемая)
  • Харли и братья Дэвидсон / Харли и Дэвидсоны / Harley and the Davidsons (2016) WEB-DL [H.264 / 720p-LQ] (сезон 1, серия 1 из 3) NewStudio (обновляемая)


    • Комментарии (0):

      Информация

      Информация

        Посетители, находящиеся в группе Гости, не могут оставлять комментарии в данной новости.

        ↓ Меню




        ↓ Опрос

        Вы добавили сайт в закладки?
        Да
        Нет


        Top 10 за месяц (Фильмы)