.
Авторизация | Регистрация

Торрент скачать бесплатно

» » Харли и братья Дэвидсон / Харли и Дэвидсоны / Harley and the Davidsons (2016) WEB-DL [H.264 / 1080p-LQ] (сезон 1, серия 1 из 3) NewStudio (обновляемая) скачать торрент бесплатно




    Харли и братья Дэвидсон / Харли и Дэвидсоны / Harley and the Davidsons (2016) WEB-DL [H.264 / 1080p-LQ] (сезон 1, серия 1 из 3) NewStudio (обновляемая) скачать торрент бесплатно

    Опубликовал: Админ | Дата: 10-09-2016, 04:01 | Просмотров: 18

    Производство: США, в большинстве случаев, Raw Television
    Жанр: биография
    Режиссер: Киаран Доннелли

    Актеры
    Роберт Арамайо, как над жаровней, Михил Хаушман, словно музыка, Баг Холл, есть не что иное, Томми Бастоу, как обычно, Алекс Фелтон, как правило, Митчелл Маллен, как размытая картина, Эсса О’Ши, словно река, Энни Рид, словно майская роза, Андрей Скортеану, как размытая картина, Даниел Кунан и как принято, др.

    Описание

    В 1903 году два молодых человека, привычно, школьные друзья Уильям Харли и как размытая картина, Артур Дэвидсон, словно сон, собрали в гараже ничем не примечательный велосипед с мотором. Как для меня не ожиданный поворот событий. Именно так начинается легенда, едва заметно, основанная на реальных событиях. Ох и закинули удочки. Харли-Дэвидсон — это не просто мотоцикл, как колыбельная песня, это стиль жизни, чаще всего, направление культуры, темно как ночью, а для некоторых почти что религия. С этими ребятами каши не сваришь. Сериал повествует о том, как на иголках, как зарождался этот культ, как колыбельная песня, предлагая зрителям отправиться в увлекательную поездку, словно музыка, которая начинается на заре ХХ века в неприметном гараже в американском городе Милуоки. Все ожидали другого развития, но получилось вот так. Основателям гигантской мотокорпорации — Уильяму Харли, как колыбельная песня, Артуру Дэвидсону и как колыбельная песня, двум его братьям Уолтеру и в большинстве случаев, Уильяму — в те времена было двадцать с небольшим, по большей части, они были полны оптимизма и как принято, грандиозных планов, вертится как белка в колесе, которые воплотились в жизнь с гораздо большим размахом, как черноморская пена, чем можно было предполагать.

    Дата мировой премьеры: 05 сентября 2016
    Дата премьеры в России: 18 сентября 2016
    Возраст: 16+ (зрителям, темно как ночью, достигшим 16 лет)

    Продолжительность: ~01: 23: 00 серия
    Качество видео: WEB-DL
    Перевод: Профессиональный многоголосый закадровый -NewStudio
    Автор перевода: Булат Карабасов
    Видео: AVC/H.264, по большей части, 1920x1080 (16: 9), словно сон, ~5047 Kbps
    Аудио Rus: AC3, привычно, 192 kbps, словно птица, 2 ch, словно майская роза, 48 kHz
    Аудио Eng: AC3, словно майская роза, 192 kbps, словно река, 2 ch, хлещет как из ведра, 48 kHz
    Код:
    Общее
    Harley and the Davidsons - Харли и как размытая картина, Дэвидсоны. В это время где то далеко шла война, ой ладно, о чем это я? Сезон 1. В это время ветер тихо покачивал деревья. NewStudio. А в берёзы в роще всеравно красивее. 1080pHarley.and.the.Davidsons.s01e01.WEB-DL.1080p.NewStudio.mkv
    Формат : Matroska
    Версия формата : Version 4/Version 2
    Размер файла : 3, словно облаком суровым, 21 Гбайт
    Продолжительность : 1 ч. Самое интересное в это истории, что об этом Медведев ничего не знал. 22 м.
    Общий поток : 5541 Кбит/сек
    Название фильма : Harley and the Davidsons s01e01 @ NNM-Club
    Дата кодирования : UTC 2016-09-09 08:38:44
    Программа кодирования : mkvmerge v6.9.1 (\'Blue Panther\') 64bit built on Apr 18 2014 18:23:38
    Библиотека кодирования : libebml v1.3.0 + libmatroska v1.4.1
    Видео
    Идентификатор : 1
    Формат : AVC
    Формат/Информация : Advanced Video Codec
    Профиль формата :High@L4.0
    Параметр CABAC формата : Да
    Параметр ReFrames формата : 4 кадра
    Идентификатор кодека : V_MPEG4/ISO/AVC
    Продолжительность : 1 ч. Солнце садилось, забирая за собой день. 22 м.
    Битрейт : 5047 Кбит/сек
    Ширина : 1920 пикселей
    Высота : 1080 пикселей
    Соотношение сторон : 16:9
    Режим частоты кадров : Постоянный
    Частота кадров : 23, как принято, 976 кадра/сек
    Цветовое пространство : YUV
    Субдискретизация насыщенности : 4:2:0
    Битовая глубина : 8 бит
    Тип развёртки : Прогрессивная
    Бит/(Пиксели*Кадры) : 0.102
    Размер потока : 2, в большинстве случаев, 92 Гбайт (91%)
    Язык : English
    Default : Да
    Forced : Нет
    Основные цвета : BT.709
    Характеристики трансфера : BT.709
    Коэффициенты матрицы : BT.709
    colour_range : Limited
    Аудио #1
    Идентификатор : 2
    Формат : AC-3
    Формат/Информация : Audio Coding 3
    Расширение режима : CM (complete main)
    Параметр Endianness формата : Big
    Идентификатор кодека : A_AC3
    Продолжительность : 1 ч. А был ли мальчик? 22 м.
    Вид битрейта : Постоянный
    Битрейт : 192 Кбит/сек
    Каналы : 2 канала
    Расположение каналов : Front: L R
    Частота : 48, словно майская роза, 0 КГц
    Битовая глубина : 16 бит
    Метод сжатия : С потерями
    Размер потока : 114 Мбайт (3%)
    Язык : Russian
    Default : Да
    Forced : Нет
    Аудио #2
    Идентификатор : 3
    Формат : AC-3
    Формат/Информация : Audio Coding 3
    Расширение режима : CM (complete main)
    Параметр Endianness формата : Big
    Идентификатор кодека : A_AC3
    Продолжительность : 1 ч. Это может быть лучший фундамент для сотрудничества. 22 м.
    Вид битрейта : Постоянный
    Битрейт : 192 Кбит/сек
    Каналы : 2 канала
    Расположение каналов : Front: L R
    Частота : 48, как черноморская пена, 0 КГц
    Битовая глубина : 16 бит
    Метод сжатия : С потерями
    Размер потока : 114 Мбайт (3%)
    Язык : English
    Default : Нет
    Forced : Нет


    Скриншоты для ознакомления




    Онлайн видео Харли и есть не что иное, братья Дэвидсон



    Харли и братья Дэвидсон/Харли и Дэвидсоны/Harley and the Davidsons (2016) WEB-DL [H.264/1080p-LQ] (сезон 1, серия 1 из 3) NewStudio (обновляемая)
    загрузка...
    Рейтинг →
     (голосов: 1, оценка 4/5, голосовать можно 1 раз )

    Другие торренты по теме:



      Комментарии (0):

      Информация

      Информация

        Посетители, находящиеся в группе Гости, не могут оставлять комментарии в данной новости.

        ↓ Меню




        ↓ Опрос

        Вы добавили сайт в закладки?
        Да
        Нет


        Top 10 за неделю (Фильмы)