.
Авторизация | Регистрация
Хочешь лучшие торренты? Добавь свой email!
Добавить

Торрент скачать бесплатно

» » Харли и братья Дэвидсон / Харли и Дэвидсоны / Harley and the Davidsons (2016) WEB-DLRip (сезон 1, серии 1 из 3) NewStudio (обновляемая) торрент скачать бесплатно




    Харли и братья Дэвидсон / Харли и Дэвидсоны / Harley and the Davidsons (2016) WEB-DLRip (сезон 1, серии 1 из 3) NewStudio (обновляемая) торрент скачать бесплатно

    Опубликовал: Админ | Дата: 9-09-2016, 04:00 | Просмотров: 64

    Производство: США/Raw Television
    Жанр: биография
    Режиссер: Киаран Доннелли

    Актеры
    Роберт Арамайо, Михил Хаушман, Баг Холл, Томми Бастоу, Алекс Фелтон, Митчелл Маллен, Эсса О’Ши, Энни Рид, Андрей Скортеану, Даниел Кунан и др.

    Описание

    Более ста лет назад, в 1903 году, два молодых человека, школьные друзья Уильям Харли и Артур Дэвидсон, собрали в гараже ничем не примечательный велосипед с мотором. Именно так начинается легенда, основанная на реальных событиях.
    Харли-Дэвидсон - это не просто мотоцикл, это стиль жизни, направление культуры, а для некоторых почти что религия. Сериал повествует о том, как зарождался этот культ, предлагая зрителям отправиться в увлекательную поездку, которая начинается на заре ХХ века в неприметном гараже в американском городе Милуоки.

    Дата мировой премьеры: 05 сентября 2016
    Дата премьеры в РФ: 18 сентября 2016
    Продолжительность: ~01: 23: 00 серия
    Качество видео: WEB-DLRip
    Перевод: Многоголосый закадровый, профессиональный -NewStudio
    Автор перевода: Булат Карабасов
    Видео: XviD, 720х400 (16: 9), ~1400 kbps
    Аудио Rus: MP3, 48, 0 kHz, 2 ch, 128 kbps - многоголосый закадровый
    Аудио Eng: MP3, 48, 0 kHz, 2 ch, 128 kbps - оригинал
    Код:

    Общее
    Полное имя : D:Харли и Дэвидсоны (сезон любимого сериала 1) Harley and the Davidsons (2016) WEBDLRip - NewStudioHarley.and.the.Davidsons.S01E01.WEBDLRip.Rus.Eng.DV.NewStudio.avi
    Формат : AVI
    Формат/Информация : Audio Video Interleave
    Размер файла : 988 Мбайт
    Продолжительность : 1 ч. 22 м.
    Общий поток : 1666 Кбит/сек
    Название фильма : Harley.and.the.Davidsons.S01E01.WEBDLRip.Rus.Eng.DV.NewStudio/NNM-Club
    Программа кодирования : VirtualDubModRus 1.5.10.2 (build 2542/release)
    Библиотека кодирования : VirtualDubMod build 2542/release
    Видео
    Идентификатор : 0
    Формат : MPEG-4 Visual
    Профиль формата : Advanced Simple@L5
    Параметр BVOP формата : 2
    Параметр QPel формата : Да
    Параметр GMC формата : Без точки перехода
    Параметр матрицы формата : Default (MPEG)
    Режим смешивания : Сжатый битовый поток
    Идентификатор кодека : XVID
    Идентификатор кодека/Подсказка : XviD
    Продолжительность : 1 ч. 22 м.
    Битрейт : 1396 Кбит/сек
    Ширина : 720 пикселей
    Высота : 400 пикселей
    Соотношение сторон : 16:9
    Частота кадров : 23, 976 (23976/1000) кадра/сек
    Цветовое пространство : YUV
    Субдискретизация насыщенности : 4:2:0
    Битовая глубина : 8 бит
    Тип развёртки : Прогрессивная
    Метод сжатия : С потерями
    Бит/(Пиксели*Кадры) : 0.202
    Размер потока : 828 Мбайт (84%)
    Библиотека кодирования : XviD 73
    Аудио #1
    Идентификатор : 1
    Формат : MPEG Audio
    Версия формата : Version 1
    Профиль формата : Layer 3
    Режим : Joint stereo
    Расширение режима : MS Stereo
    Идентификатор кодека : 55
    Идентификатор кодека/Подсказка : MP3
    Продолжительность : 1 ч. 22 м.
    Вид битрейта : Постоянный
    Битрейт : 128 Кбит/сек
    Каналы : 2 канала
    Частота : 48, 0 КГц
    Метод сжатия : С потерями
    Размер потока : 75, 9 Мбайт (8%)
    Выравнивание : Соединение по промежуткам
    Продолжительность промежутка : 42 мс. (1, 00 видеокадр)
    Время предзагрузки промежутка : 504 мс.
    Аудио #2
    Идентификатор : 2
    Формат : MPEG Audio
    Версия формата : Version 1
    Профиль формата : Layer 3
    Режим : Joint stereo
    Идентификатор кодека : 55
    Идентификатор кодека/Подсказка : MP3
    Продолжительность : 1 ч. 22 м.
    Вид битрейта : Постоянный
    Битрейт : 128 Кбит/сек
    Каналы : 2 канала
    Частота : 48, 0 КГц
    Метод сжатия : С потерями
    Размер потока : 75, 9 Мбайт (8%)
    Выравнивание : Соединение по промежуткам
    Продолжительность промежутка : 42 мс. Прикольно все это наверно придумал Халк потратив достаточно времени. (1, 00 видеокадр)
    Время предзагрузки промежутка : 504 мс.
    Библиотека кодирования : LAME3.99.5


    Скриншоты для ознакомления




    Онлайн видео Харли и братья Дэвидсон



    Харли и братья Дэвидсон/Харли и Дэвидсоны/Harley and the Davidsons (2016) WEB-DLRip (сезон 1, серии 1 из 3) NewStudio (обновляемая)
    загрузка...
    Рейтинг →
     (голосов: 1, оценка 4/5, голосовать можно 1 раз )

    Другие торренты по теме:

  • Харли и братья Дэвидсон / Харли и Дэвидсоны / Harley and the Davidsons (2016) WEB-DL [H.264 / 1080p-LQ] (сезон 1, серия 1 из 3) NewStudio (обновляемая)
  • Харли и братья Дэвидсон / Харли и Дэвидсоны / Harley and the Davidsons (2016) WEB-DL [H.264 / 720p-LQ] (сезон 1, серия 1 из 3) NewStudio (обновляемая)


    • Комментарии (0):

      Информация

      Информация

        Посетители, находящиеся в группе Гости, не могут оставлять комментарии в данной новости.

        ↓ Меню




        ↓ Опрос

        Вы добавили сайт в закладки?
        Да
        Нет


        Top 10 за месяц (Фильмы)