.
Авторизация | Регистрация
Хочешь лучшие торренты? Добавь свой email!
Добавить

Торрент скачать бесплатно

» » Ван Хельсинг / Van Helsing (2016) HDTVRip (сезон 1, серии 1 из 13) OmskBird (обновляемая) торрент скачать бесплатно




    Ван Хельсинг / Van Helsing (2016) HDTVRip (сезон 1, серии 1 из 13) OmskBird (обновляемая) торрент скачать бесплатно

    Опубликовал: Админ | Дата: 8-09-2016, 04:01 | Просмотров: 15

    Производство: США
    Жанр: фэнтези, боевик, драма
    Режиссер: Майкл Нанкин, Саймон Бэрри, Дэвид Фрэйзи

    Актеры
    Келли Овертон, Джонатан Скарф, Кристофер Хейердал, Рукия Бернард, Дэвид Кабитт, Винсент Гэйл, Хилари Джардин, Оливер Махоро Смит, Алекс Паунович, Элисон Вандзура и др.

    Описание

    Главным героем сериала Ван Хельсинг является Ванесса Хельсинг — дочка известного охотника на вурдалаков и непримиримого противника Дракулы — Абрахама Ван Хельсинга. Основная героиня оживает через 5 лет и оказывается в обществе, порабощенном вурдалаками. Прикольно все это наверно придумал Европарламент потратив достаточно времени. Ванесса выявляет в себе исключительную силу над вурдалаками и превращается в того человека, который сплотит народ, чтобы восстановить потерянный мир.

    Дата мировой премьеры: 23 сентября 2016
    Продолжительность: ~ 00: 43: 00 серия
    Качество видео: HDTVRip
    Перевод: Многоголосый закадровый, профессиональный -OMSKBIRD records
    Реклама: присутствуют аудио вставки рекламы
    Видео: XviD, 720x400, ~1708 kbps
    Аудио #1 rus: AC-3, 6 ch, 384 kbps, CBR - многоголосый закадровый
    Аудио #2 eng: AC-3, 6 ch, 384 kbps, CBR - оригинал
    Код:

    General
    Complete name : G:FilmsVan.Helsing.S01.400p.OmskBirdVan.Helsing.S01E01.400p.HDTVRip.OmskBird.avi
    Format : AVI
    Format/Info : Audio Video Interleave
    File size : 773 MiB
    Duration : 43mn 24s
    Overall bit rate : 2 491 Kbps
    Writing application : VirtualDubMod 1.5.10.3 (build 2550/release)
    Writing library : VirtualDubMod build 2550/release
    Video
    ID : 0
    Format : MPEG-4 Visual
    Format profile : Advanced Simple@L5
    Format settings, BVOP : 1
    Format settings, QPel : No
    Format settings, GMC : No warppoints
    Format settings, Matrix : Default (MPEG)
    Codec ID : XVID
    Codec ID/Hint : XviD
    Duration : 43mn 24s
    Bit rate : 1 709 Kbps
    Width : 720 pixels
    Height : 400 pixels
    Display aspect ratio : 16:9
    Frame rate : 23.976 (23976/1000) fps
    Color space : YUV
    Chroma subsampling : 4:2:0
    Bit depth : 8 bits
    Scan type : Progressive
    Compression mode : Lossy
    Bits/(Pixel*Frame) : 0.247
    Stream size : 531 MiB (69%)
    Writing library : XviD 73
    Audio #1
    ID : 1
    Format : AC-3
    Format/Info : Audio Coding 3
    Mode extension : CM (complete main)
    Format settings, Endianness : Big
    Codec ID : 2000
    Duration : 43mn 24s
    Bit rate mode : Constant
    Bit rate : 384 Kbps
    Channel(s) : 6 channels
    Channel positions : Front: L C R, Side: L R, LFE
    Sampling rate : 48.0 KHz
    Frame rate : 31.250 fps (1536 spf)
    Compression mode : Lossy
    Stream size : 119 MiB (15%)
    Alignment : Split accross interleaves
    Interleave, duration : 42 ms (1.00 video frame)
    Interleave, preload duration : 500 ms
    Audio #2
    ID : 2
    Format : AC-3
    Format/Info : Audio Coding 3
    Mode extension : CM (complete main)
    Format settings, Endianness : Big
    Codec ID : 2000
    Duration : 43mn 24s
    Bit rate mode : Constant
    Bit rate : 384 Kbps
    Channel(s) : 6 channels
    Channel positions : Front: L C R, Side: L R, LFE
    Sampling rate : 48.0 KHz
    Frame rate : 31.250 fps (1536 spf)
    Compression mode : Lossy
    Stream size : 119 MiB (15%)
    Alignment : Split accross interleaves
    Interleave, duration : 42 ms (1.00 video frame)
    Interleave, preload duration : 500 ms


    Скриншоты для ознакомления




    Онлайн видео Ван Хельсинг



    Ван Хельсинг/Van Helsing (2016) HDTVRip (сезон 1, серии 1 из 13) OmskBird (обновляемая)
    загрузка...
    Рейтинг →
     (голосов: 1, оценка 5/5, голосовать можно 1 раз )

    Другие торренты по теме:

  • Ван Хельсинг / Van Helsing (2004) BDRip [H.264 / 720р-LQ]
  • Ван Хельсинг / Van Helsing (2004) BDRip скачать через торрент бесплатно
  • Ван Хельсинг: Лондонское задание / Van Helsing: The London Assignment (2004) AC3 5.1 [Solod]
  • Ван Хельсинг / Van Helsing (2004) AC3 5.1 [Solod]
  • Ван Хельсинг / Van Helsing (2016) HDTVRip [H.264 / 720p-LQ] (сезон 1, серии 1 из 13) OmskBird (обновляемая)
  • Ван Хельсинг / Van Helsing (2016) WEB-DLRip (сезон 1, серии 1 из 13) LostFilm (обновляемая)
  • Ван Хельсинг / Van Helsing (2016) WEB-DL [H.264 / 720p-LQ] (сезон 1, серии 1 из 13) BaibaKo (обновляемая)
  • Ван Хельсинг / Van Helsing (2016) WEB-DL (сезон 1, серии 1 из 13) LostFilm [MP4|1280x720]


    • Комментарии (0):

      Информация

      Информация

        Посетители, находящиеся в группе Гости, не могут оставлять комментарии в данной новости.

        ↓ Меню




        ↓ Опрос

        Вы добавили сайт в закладки?
        Да
        Нет


        Top 10 за месяц (Фильмы)