.
Авторизация | Регистрация
Хочешь лучшие торренты? Добавь свой email!
Добавить

Торрент скачать бесплатно

» » Ван Хельсинг / Van Helsing (2016) HDTVRip [H.264 / 720p-LQ] (сезон 1, серии 1 из 13) OmskBird (обновляемая) торрент скачать бесплатно




    Ван Хельсинг / Van Helsing (2016) HDTVRip [H.264 / 720p-LQ] (сезон 1, серии 1 из 13) OmskBird (обновляемая) торрент скачать бесплатно

    Опубликовал: Админ | Дата: 8-09-2016, 04:01 | Просмотров: 17

    Производство: США
    Жанр: фэнтези, боевик, драма
    Режиссер: Майкл Нанкин, Саймон Бэрри, Дэвид Фрэйзи

    Актеры
    Келли Овертон, Джонатан Скарф, Кристофер Хейердал, Рукия Бернард, Дэвид Кабитт, Винсент Гэйл, Хилари Джардин, Оливер Махоро Смит, Алекс Паунович, Элисон Вандзура и др.

    Описание

    Главным героем сериала Ван Хельсинг является Ванесса Хельсинг — дочка известного охотника на вурдалаков и непримиримого противника Дракулы — Абрахама Ван Хельсинга. Основная героиня оживает через 5 лет и оказывается в обществе, порабощенном вурдалаками. Ванесса выявляет в себе исключительную силу над вурдалаками и превращается в того человека, который сплотит народ, чтобы восстановить потерянный мир.

    Дата мировой премьеры: 23 сентября 2016
    Продолжительность: ~ 00: 43: 00 серия
    Качество видео: HDTVRip
    Перевод: Многоголосый закадровый, профессиональный -OMSKBIRD records
    Вид субтитров: вшитые отключаемые
    Язык субтитров: английский
    Реклама: присутствуют аудио вставки рекламы
    Видео: AVC/H.264, 1280x720 (16: 9), ~2200 kbps
    Аудио #1 rus: AC3, 6 ch, 384 kbps, CBR - многоголосый закадровый
    Аудио #2 eng: AC3, 6 ch, 384 kbps, CBR - оригинал
    Код:

    General
    Unique ID : 189247513350222763542778604344803715076 (0x8E5FBECB13968C54AAC2F6D8BB31E804)
    Complete name : G:FilmsVan.Helsing.S01.720p.OmskBirdVan.Helsing.S01E01.720p.HDTVRip.OmskBird.mkv
    Format : Matroska
    Format version : Version 4/Version 2
    File size : 923 MiB
    Duration : 43mn 33s
    Overall bit rate : 2 962 Kbps
    Encoded date : UTC 2016-09-07 06:36:04
    Writing application : mkvmerge v9.4.0 (\'Knurl\') 64bit
    Writing library : libebml v1.3.4 + libmatroska v1.4.5
    Video
    ID : 1
    Format : AVC
    Format/Info : Advanced Video Codec
    Format profile :High@L4.1
    Format settings, CABAC : Yes
    Format settings, ReFrames : 5 frames
    Codec ID : V_MPEG4/ISO/AVC
    Duration : 43mn 24s
    Bit rate : 2 201 Kbps
    Width : 1 280 pixels
    Height : 720 pixels
    Display aspect ratio : 16:9
    Frame rate mode : Constant
    Frame rate : 23.976 (24000/1001) fps
    Color space : YUV
    Chroma subsampling : 4:2:0
    Bit depth : 8 bits
    Scan type : Progressive
    Bits/(Pixel*Frame) : 0.100
    Stream size : 683 MiB (74%)
    Writing library : x264 core 148 r2705 3f5ed56
    Encoding settings : cabac=1/ref=5/deblock=1:0:0/analyse=0x3:0x113/me=umh/subme=8/psy=1/psy_rd=1.00:0.00/mixed_ref=1/me_range=16/chroma_me=1/trellis=1/8x8dct=1/cqm=0/deadzone=21, 11/fast_pskip=1/chroma_qp_offset=-2/threads=12/lookahead_threads=2/sliced_threads=0/nr=0/decimate=1/interlaced=0/bluray_compat=0/constrained_intra=0/bframes=3/b_pyramid=2/b_adapt=2/b_bias=0/direct=3/weightb=1/open_gop=0/weightp=2/keyint=250/keyint_min=23/scenecut=40/intra_refresh=0/rc_lookahead=50/rc=crf/mbtree=1/crf=18.0/qcomp=0.60/qpmin=0/qpmax=69/qpstep=4/ip_ratio=1.40/aq=1:1.00
    Language : English
    Default : Yes
    Forced : No
    Audio #1
    ID : 2
    Format : AC-3
    Format/Info : Audio Coding 3
    Mode extension : CM (complete main)
    Format settings, Endianness : Big
    Codec ID : A_AC3
    Duration : 43mn 33s
    Bit rate mode : Constant
    Bit rate : 384 Kbps
    Channel(s) : 6 channels
    Channel positions : Front: L C R, Side: L R, LFE
    Sampling rate : 48.0 KHz
    Frame rate : 31.250 fps (1536 spf)
    Compression mode : Lossy
    Stream size : 120 MiB (13%)
    Title : OmskBird 5.1
    Language : Russian
    Default : Yes
    Forced : No
    Audio #2
    ID : 3
    Format : AC-3
    Format/Info : Audio Coding 3
    Mode extension : CM (complete main)
    Format settings, Endianness : Big
    Codec ID : A_AC3
    Duration : 43mn 24s
    Bit rate mode : Constant
    Bit rate : 384 Kbps
    Channel(s) : 6 channels
    Channel positions : Front: L C R, Side: L R, LFE
    Sampling rate : 48.0 KHz
    Frame rate : 31.250 fps (1536 spf)
    Compression mode : Lossy
    Stream size : 119 MiB (13%)
    Title : original 5.1
    Language : English
    Default : No
    Forced : No
    Text
    ID : 4
    Format : UTF-8
    Codec ID : S_TEXT/UTF8
    Codec ID/Info : UTF-8 Plain Text
    Duration : 42mn 55s
    Bit rate : 69 bps
    Count of elements : 667
    Stream size : 21.8 KiB (0%)
    Title : CC
    Language : English
    Default : No
    Forced : No


    Скриншоты для ознакомления




    Онлайн видео Ван Хельсинг



    Ван Хельсинг/Van Helsing (2016) HDTVRip [H.264/720p-LQ] (сезон 1, серии 1 из 13) OmskBird (обновляемая)
    загрузка...
    Рейтинг →
     (голосов: 1, оценка 4/5, голосовать можно 1 раз )

    Другие торренты по теме:

  • Ван Хельсинг / Van Helsing (2004) BDRip [H.264 / 720р-LQ]
  • Ван Хельсинг / Van Helsing (2004) BDRip скачать через торрент бесплатно
  • Ван Хельсинг: Лондонское задание / Van Helsing: The London Assignment (2004) AC3 5.1 [Solod]
  • Ван Хельсинг / Van Helsing (2004) AC3 5.1 [Solod]
  • Ван Хельсинг / Van Helsing (2016) HDTVRip (сезон 1, серии 1 из 13) OmskBird (обновляемая)
  • Ван Хельсинг / Van Helsing (2016) WEB-DLRip (сезон 1, серии 1 из 13) LostFilm (обновляемая)
  • Ван Хельсинг / Van Helsing (2016) WEB-DL [H.264 / 720p-LQ] (сезон 1, серии 1 из 13) BaibaKo (обновляемая)
  • Ван Хельсинг / Van Helsing (2016) WEB-DL (сезон 1, серии 1 из 13) LostFilm [MP4|1280x720]


    • Комментарии (0):

      Информация

      Информация

        Посетители, находящиеся в группе Гости, не могут оставлять комментарии в данной новости.

        ↓ Меню




        ↓ Опрос

        Вы добавили сайт в закладки?
        Да
        Нет


        Top 10 за месяц (Фильмы)