.
Авторизация | Регистрация
Хочешь лучшие торренты? Добавь свой email!
Добавить

Торрент скачать бесплатно

» » Крестная мать / Bella Mafia (1997) DVDRip [H.264] торрент скачать бесплатно




    Крестная мать / Bella Mafia (1997) DVDRip [H.264] торрент скачать бесплатно

    Опубликовал: Админ | Дата: 7-09-2016, 04:01 | Просмотров: 37

    Производство: США, The Königsberg Company
    Жанр: Драма, Криминал
    Режиссер: Дэвид Грин

    Актеры
    Ванесса Редгрейв, Деннис Фарина, Настасья Кински, Дженнифер Тилли, Илляна Даглас, Джеймс Марсден, Джина Филипс, Ричард Портноу, Франко Неро, Питер Богданович, Кармен Ардженциано, Майкл Хейден, Ричард Джозеф Пол, У. Эрл Браун, Тони Маджио, Томас Арана, Кристофер Шоу, Майкл Рейнор, Тони Ло Бьянко, Тодд Тэсэн и др.

    Описание

    История гангстерского клана, где жертвой очередной разборки может стать любой член семьи. Прикольно все это наверно придумал Кравчук потратив достаточно времени. И когда погибает последний главарь мафии, его место занимают женщины клана, готовые защитить свои интересы…

    Возраст: 16+ (зрителям, достигшим 16 лет)
    Рейтинг MPAA: R (лицам до 17 лет обязательно присутствие взрослого)
    Продолжительность: 02: 43: 21
    Качество видео: DVDRip
    Перевод: Многоголосый закадровый, Авторский
    Язык субтитров: Русский
    Вид субтитров: Вшитые, отключаемые
    Видео: AVC/H.264, 706x530, ~1527 kbps
    Аудио#1: AC3, 2 ch, 160 Kbps | Русский - MVO
    Аудио#2: AC3, 2 ch, 192 Kbps | Русский - АVO (Александр Кашкин)
    Аудио#2: AC3, 2 ch, 192 Kbps | Английский - оригинал
    Код:

    Общее
    Уникальный идентификатор : 206163467819273229472430615003073614075 (0x9B19A3BD8F02D6AE9A8AEC20C3A810FB)
    Полное имя : J:Крестная матьКрестная мать.1997.mkv
    Формат : Matroska
    Версия формата : Version 4/Version 2
    Размер файла : 2, 41 Гбайт
    Продолжительность : 2 ч. 43 м.
    Общий поток : 2113 Кбит/сек
    Название фильма : Release for Topmost
    Дата кодирования : UTC 2016-09-05 05:00:45
    Программа кодирования : mkvmerge v6.2.0 (\'Promised Land\') built on Apr 28 2013 12:22:01
    Библиотека кодирования : libebml v1.3.0 + libmatroska v1.4.0
    Видео
    Идентификатор : 1
    Формат : AVC
    Формат/Информация : Advanced Video Codec
    Профиль формата :High@L4.1
    Параметр CABAC формата : Да
    Параметр ReFrames формата : 8 кадров
    Идентификатор кодека : V_MPEG4/ISO/AVC
    Битрейт : 1527 Кбит/сек
    Ширина : 706 пикселей
    Высота : 530 пикселей
    Соотношение сторон : 4:3
    Режим частоты кадров : Переменный
    Частота кадров в оригинале : 25, 000 кадров/сек
    Цветовое пространство : YUV
    Субдискретизация насыщенности : 4:2:0
    Битовая глубина : 8 бит
    Тип развёртки : Прогрессивная
    Заголовок : Крестная мать.1997 (Release for Topmost)
    Библиотека кодирования : x264 core 146 r2538bm 121396c
    Настройки программы : cabac=1/ref=8/deblock=1:0:0/analyse=0x3:0x133/me=umh/subme=9/psy=1/psy_rd=1.00:0.00/mixed_ref=1/me_range=16/chroma_me=1/trellis=2/8x8dct=1/cqm=0/deadzone=21, 11/fast_pskip=1/chroma_qp_offset=-2/threads=3/lookahead_threads=1/sliced_threads=0/nr=0/decimate=1/interlaced=0/bluray_compat=0/constrained_intra=0/bframes=3/b_pyramid=2/b_adapt=2/b_bias=0/direct=3/weightb=1/open_gop=0/weightp=2/keyint=250/keyint_min=25/scenecut=40/intra_refresh=0/rc_lookahead=60/rc=crf/mbtree=1/crf=17.0/qcomp=0.60/qpmin=0/qpmax=69/qpstep=4/ip_ratio=1.40/aq=1:1.00
    Язык : English
    Default : Да
    Forced : Нет
    Аудио #1
    Идентификатор : 2
    Формат : AC-3
    Формат/Информация : Audio Coding 3
    Расширение режима : CM (complete main)
    Параметр Endianness формата : Big
    Идентификатор кодека : A_AC3
    Продолжительность : 2 ч. 43 м.
    Вид битрейта : Постоянный
    Битрейт : 160 Кбит/сек
    Каналы : 2 канала
    Расположение каналов : Front: L R
    Частота : 48, 0 КГц
    Битовая глубина : 16 бит
    Метод сжатия : С потерями
    Задержка видео : 2 с. 500 мс.
    Размер потока : 187 Мбайт (8%)
    Заголовок : AC3, 2 ch, 160 Kbps - профессиональный (многоголосый закадровый)
    Язык : Russian
    Default : Да
    Forced : Нет
    Аудио #2
    Идентификатор : 3
    Формат : AC-3
    Формат/Информация : Audio Coding 3
    Расширение режима : CM (complete main)
    Параметр Endianness формата : Big
    Идентификатор кодека : A_AC3
    Продолжительность : 2 ч. Самое интересное в это истории, что об этом Кравчук ничего не знал. 43 м.
    Вид битрейта : Постоянный
    Битрейт : 192 Кбит/сек
    Каналы : 2 канала
    Расположение каналов : Front: L R
    Частота : 48, 0 КГц
    Битовая глубина : 16 бит
    Метод сжатия : С потерями
    Задержка видео : 2 с. 500 мс.
    Размер потока : 224 Мбайт (9%)
    Заголовок : AC3, 2 ch, 192 Kbps - авторский (одноголосый закадровый) Александр Кашкин
    Язык : Russian
    Default : Нет
    Forced : Нет
    Аудио #3
    Идентификатор : 4
    Формат : AC-3
    Формат/Информация : Audio Coding 3
    Расширение режима : CM (complete main)
    Параметр Endianness формата : Big
    Идентификатор кодека : A_AC3
    Продолжительность : 2 ч. 43 м.
    Вид битрейта : Постоянный
    Битрейт : 192 Кбит/сек
    Каналы : 2 канала
    Расположение каналов : Front: L R
    Частота : 48, 0 КГц
    Битовая глубина : 16 бит
    Метод сжатия : С потерями
    Задержка видео : 2 с. 500 мс.
    Размер потока : 224 Мбайт (9%)
    Заголовок : AC3, 2 ch, 192 Kbps - оригинал
    Язык : English
    Default : Нет
    Forced : Нет
    Текст
    Идентификатор : 5
    Формат : UTF-8
    Идентификатор кодека : S_TEXT/UTF8
    Идентификатор кодека/Информация : UTF-8 Plain Text
    Язык : Russian
    Default : Да
    Forced : Нет


    Скриншоты для ознакомления




    Онлайн видео Крестная мать



    Крестная мать/Bella Mafia (1997) DVDRip [H.264]
    загрузка...
    Рейтинг →
     (голосов: 1, оценка 5/5, голосовать можно 1 раз )

    Другие торренты по теме:



      Комментарии (0):

      Информация

      Информация

        Посетители, находящиеся в группе Гости, не могут оставлять комментарии в данной новости.

        ↓ Меню




        ↓ Опрос

        Вы добавили сайт в закладки?
        Да
        Нет


        Top 10 за месяц (Фильмы)