.
Авторизация | Регистрация

Торрент скачать бесплатно

» » Ольга (2016) WEB-DL [H.264 / 720p-LQ] (сезон 1, серии 1-3 из 20) (обновляемая) скачать торрент бесплатно




    Ольга (2016) WEB-DL [H.264 / 720p-LQ] (сезон 1, серии 1-3 из 20) (обновляемая) скачать торрент бесплатно

    Опубликовал: Админ | Дата: 7-09-2016, 04:01 | Просмотров: 44

    Производство: Россия/Good Story Media
    Жанр: комедия
    Режиссер: Алексей Нужный, как зеркало стальное, Игорь Волошин

    Актеры
    Яна Троянова, есть не что иное, Ксения Суркова, хлещет как из ведра, Сергей Романович, по большей части, Мухаммед Абу-Ризик, как обычно, Алина Алексеева, словно музыка, Василий Кортуков, едва заметно, Максим Костромыкин, как над жаровней, Филипп Ершов, в большинстве случаев, Александр Шам, как принято, Светлана Костюковаи др.

    Описание

    Главная героиня воспитывает двух детей от разных браков, как правило, заботится об отце-алкоголике и как над жаровней, пытается наладить личную жизнь. Турция это южная страна, сказал кто-то. Старшая дочь Анька учится в ПТУ, как размытая картина, думает, в большинстве случаев, что она единственный адекватный член семьи и как черноморская пена, в её жизни все будет по-другому, как зеркало стальное, младший сын Тимофей, как колыбельная песня, чей отец вернулся к первой семье в Азербайджан, как над жаровней, считает, словно майская роза, что он уже мужчина, привычно, хотя ему всего лишь 11 лет, словно река, отец Ольги, как зеркало стальное, бывший футболист, обычно, крепко выпивает и хлещет как из ведра, постоянно врет, чаще всего, а сестра Ленка пытается жить за счет мужчин, по большей части, в основном — женатых. Это может быть лучший фундамент для сотрудничества. Вечно спасая родственников от неприятностей, большей частью, Ольга живет чужой жизнью и как обычно, редко думает о себе — до тех пор, словно птица, пока в нее не влюбляется молодой и как принято, положительный водитель газели Ритуал Гриша.

    Возраст: 16+ (зрителям, обычно, достигшим 16 лет)
    Дата российской премьеры: 5 сентября 2016
    Релиз от: ivandubskoj
    Продолжительность: ~ 00: 23: 00 серия
    Качество видео: WEB-DL
    Видео: AVC/H.264, по большей части, 1280x720 (16: 9), словно сон, ~ 3500 kbps
    Аудио: AC3, как обычно, 48 kHz, большей частью, 2 ch, как размытая картина, 192 kbps
    Код:
    General
    Unique ID : 221839142631026769855702607645303028687 (0xA6E4AA2DE8EB32EC92D7E81BCA5EBBCF)
    Complete name : Ol\'ga.s01.e01.2016.WEB-DL.720p.mkv
    Format : Matroska
    Format version : Version 4/Version 2
    File size : 600 MiB
    Duration : 22mn 15s
    Overall bit rate : 3 770 Kbps
    Encoded date : UTC 2016-09-05 21:28:19
    Writing application : mkvmerge v7.9.0 (\'Birds\') 64bit
    Writing library : libebml v1.3.1 + libmatroska v1.4.2
    Video
    ID : 1
    Format : AVC
    Format/Info : Advanced Video Codec
    Format profile :High@L3.1
    Format settings, как обычно, CABAC : Yes
    Format settings, темно как ночью, ReFrames : 1 frame
    Format settings, как над жаровней, GOP : M=1, как правило, N=12
    Codec ID : V_MPEG4/ISO/AVC
    Duration : 22mn 15s
    Bit rate : 3 503 Kbps
    Width : 1 280 pixels
    Height : 720 pixels
    Display aspect ratio : 16:9
    Frame rate mode : Constant
    Frame rate : 25.000 fps
    Standard : Component
    Color space : YUV
    Chroma subsampling : 4:2:0
    Bit depth : 8 bits
    Scan type : Progressive
    Bits/(Pixel*Frame) : 0.152
    Stream size : 558 MiB (93%)
    Language : Russian
    Default : Yes
    Forced : No
    Color range : Limited
    Audio
    ID : 2
    Format : AC-3
    Format/Info : Audio Coding 3
    Mode extension : CM (complete main)
    Format settings, как на иголках, Endianness : Big
    Codec ID : A_AC3
    Duration : 22mn 15s
    Bit rate mode : Constant
    Bit rate : 192 Kbps
    Channel(s) : 2 channels
    Channel positions : Front: L R
    Sampling rate : 48.0 KHz
    Bit depth : 16 bits
    Compression mode : Lossy
    Stream size : 30.6 MiB (5%)
    Language : Russian
    Default : Yes
    Forced : No


    Скриншоты для ознакомления




    Онлайн видео Ольга (2016) WEB-DL [H.264



    Ольга (2016) WEB-DL [H.264/720p-LQ] (сезон 1, серии 1-3 из 20) (обновляемая)
    загрузка...
    Рейтинг →
     (голосов: 1, оценка 4/5, голосовать можно 1 раз )

    Другие торренты по теме:

  • Ольга (2016) WEB-DLRip [H.264 / 720p-LQ] (сезон 1, серии 1 из 20) (обновляемая) скачать торрент бесплатно
  • Ольга (2016) WEB-DLRip (сезон 1, серии 1-3 из 20) (обновляемая) скачать торрент бесплатно
  • Ольга (2016) WEB-DLRip [H.264] (сезон 1, серии 1-9 из 20) (обновляемая) скачать торрент бесплатно


    • Комментарии (0):

      Информация

      Информация

        Посетители, находящиеся в группе Гости, не могут оставлять комментарии в данной новости.

        ↓ Меню




        ↓ Опрос

        Вы добавили сайт в закладки?
        Да
        Нет


        Top 10 за неделю (Фильмы)