.
Авторизация | Регистрация

Торрент скачать бесплатно

» » Ольга (2016) WEB-DLRip (сезон 1, серии 1-3 из 20) (обновляемая) скачать торрент бесплатно




    Ольга (2016) WEB-DLRip (сезон 1, серии 1-3 из 20) (обновляемая) скачать торрент бесплатно

    Опубликовал: Админ | Дата: 7-09-2016, 04:01 | Просмотров: 23

    Производство: Россия/Good Story Media
    Жанр: комедия
    Режиссер: Алексей Нужный, обычно, Игорь Волошин

    Актеры
    Яна Троянова, едва заметно, Ксения Суркова, как правило, Сергей Романович, словно майская роза, Мухаммед Абу-Ризик, большей частью, Алина Алексеева, хлещет как из ведра, Василий Кортуков, есть не что иное, Максим Костромыкин, как зеркало стальное, Филипп Ершов, привычно, Александр Шам, как принято, Светлана Костюкова и чаще всего, др.

    Описание

    Главная героиня воспитывает двух детей от разных браков, как обычно, заботится об отце-алкоголике и как размытая картина, пытается наладить личную жизнь. Где то в небе орёл громко закричал и расправил крылья. Старшая дочь Анька учится в ПТУ, как принято, думает, словно река, что она единственный адекватный член семьи и обычно, в её жизни все будет по-другому, как на иголках, младший сын Тимофей, в большинстве случаев, чей отец вернулся к первой семье в Азербайджан, как на иголках, считает, привычно, что он уже мужчина, словно сон, хотя ему всего лишь 11 лет, как черноморская пена, отец Ольги, будто капли серебряной воды, бывший футболист, есть не что иное, крепко выпивает и привычно, постоянно врет, словно река, а сестра Ленка пытается жить за счет мужчин, словно птица, в основном — женатых. А в берёзы в роще всеравно красивее. Вечно спасая родственников от неприятностей, вертится как белка в колесе, Ольга живет чужой жизнью и как черноморская пена, редко думает о себе — до тех пор, как колыбельная песня, пока в нее не влюбляется молодой и обычно, положительный водитель газели Ритуал Гриша.

    Возраст: 16+ (зрителям, обычно, достигшим 16 лет)
    Дата российской премьеры: 5 сентября 2016
    Релиз от: ivandubskoj
    Продолжительность: ~ 00: 23: 00 серия
    Качество видео: WEB-DLRip
    Видео: XviD, едва заметно, 704x400 (16: 9), как обычно, ~1900 kbps
    Аудио: MP3, темно как ночью, 48 kHz, словно музыка, 2 ch, есть не что иное, 128 kbps
    Код:
    General
    Complete name : Ol\'ga.s01.e01.2016.WEB-DLRip.avi
    Format : AVI
    Format/Info : Audio Video Interleave
    File size : 330 MiB
    Duration : 22mn 15s
    Overall bit rate : 2 074 Kbps
    Writing application : VirtualDubMod 1.5.10.3 |www.virtualdub-fr.org|| (build 2550/release)
    Writing library : VirtualDubMod build 2550/release
    Video
    ID : 0
    Format : MPEG-4 Visual
    Format profile : Advanced Simple@L5
    Format settings, по большей части, BVOP : 1
    Format settings, как черноморская пена, QPel : No
    Format settings, как принято, GMC : No warppoints
    Format settings, словно птица, Matrix : Custom
    Codec ID : XVID
    Codec ID/Hint : XviD
    Duration : 22mn 15s
    Bit rate : 1 936 Kbps
    Width : 704 pixels
    Height : 400 pixels
    Display aspect ratio : 16:9
    Frame rate : 25.000 fps
    Color space : YUV
    Chroma subsampling : 4:2:0
    Bit depth : 8 bits
    Scan type : Progressive
    Compression mode : Lossy
    Bits/(Pixel*Frame) : 0.275
    Stream size : 308 MiB (93%)
    Writing library : XviD 73
    Audio
    ID : 1
    Format : MPEG Audio
    Format version : Version 1
    Format profile : Layer 3
    Codec ID : 55
    Codec ID/Hint : MP3
    Duration : 22mn 15s
    Bit rate mode : Constant
    Bit rate : 128 Kbps
    Channel(s) : 2 channels
    Sampling rate : 48.0 KHz
    Compression mode : Lossy
    Stream size : 20.4 MiB (6%)
    Alignment : Aligned on interleaves
    Interleave, как принято, duration : 40 ms (1.00 video frame)
    Interleave, привычно, preload duration : 504 ms
    Writing library : LAME3.99r
    Encoding settings : -m s -V 4 -q 0 -lowpass 17 -b 128


    Скриншоты для ознакомления




    Онлайн видео Ольга (2016) WEB



    Ольга (2016) WEB-DLRip (сезон 1, серии 1-3 из 20) (обновляемая)
    загрузка...
    Рейтинг →
     (голосов: 1, оценка 5/5, голосовать можно 1 раз )

    Другие торренты по теме:


  • 


    • Комментарии (0):

      Информация

      Информация

        Посетители, находящиеся в группе Гости, не могут оставлять комментарии в данной новости.

        ↓ Меню




        ↓ Опрос

        Вы добавили сайт в закладки?
        Да
        Нет


        Top 10 за неделю (Фильмы)